<?xml version="1.0" standalone="no"?>
<!DOCTYPE svg PUBLIC "-//W3C//DTD SVG 1.1//EN" "http://www.w3.org/Graphics/SVG/1.1/DTD/svg11.dtd" >
<svg xmlns="http://www.w3.org/2000/svg" xmlns:xlink="http://www.w3.org/1999/xlink" version="1.1">
<metadata>
Created by FontForge 20201107 at Mon Nov 25 14:48:19 2024
 By 
(c) 1988, 1990, 1994, 2002 Adobe Systems Incorporated. All rights reserved.
</metadata>
<defs>
<font id="FrutigerLTStd-Bold" horiz-adv-x="1138" >
  <font-face 
    font-family="Frutiger LT Std 45 Light"
    font-weight="700"
    font-stretch="normal"
    units-per-em="2048"
    panose-1="2 11 7 3 3 5 4 2 2 4"
    ascent="1536"
    descent="-512"
    x-height="1055"
    cap-height="1430"
    bbox="-340 -512 2048 1915"
    underline-thickness="102"
    underline-position="-204"
    unicode-range="U+0020-FB02"
  />
<missing-glyph horiz-adv-x="1024" 
d="M0 0v1434h1024v-1434h-1024zM512 809l348 522h-696zM573 717l349 -522v1044zM164 102h696l-348 523zM102 1239v-1044l349 522z" />
    <glyph glyph-name="f_i" unicode="fi" horiz-adv-x="1366" 
d="M944 0v1055h275v-1055h-275zM944 1247v262h275v-262h-275zM242 0v854h-203v201h203v147q0 162 88.5 260.5t247.5 98.5q98 0 200 -23l-22 -227q-1 1 -8.5 5t-10 5.5t-10 5.5t-12 5.5t-12.5 4.5t-14.5 4.5t-15 3.5t-17.5 2.5t-19 0.5q-64 0 -92.5 -46t-28.5 -116v-131h240
v-201h-240v-854h-274z" />
    <glyph glyph-name="f_l" unicode="fl" horiz-adv-x="1366" 
d="M944 0v1536h275v-1536h-275zM242 0v854h-203v201h203v147q0 162 88.5 260.5t247.5 98.5q98 0 200 -23l-22 -227q-1 1 -8.5 5t-10 5.5t-10 5.5t-12 5.5t-12.5 4.5t-14.5 4.5t-15 3.5t-17.5 2.5t-19 0.5q-64 0 -92.5 -46t-28.5 -116v-131h240v-201h-240v-854h-274z" />
    <glyph glyph-name=".notdef" horiz-adv-x="1024" 
d="M0 0v1434h1024v-1434h-1024zM512 809l348 522h-696zM573 717l349 -522v1044zM164 102h696l-348 523zM102 1239v-1044l349 522z" />
    <glyph glyph-name=".null" horiz-adv-x="0" 
 />
    <glyph glyph-name="nonmarkingreturn" horiz-adv-x="682" 
 />
    <glyph glyph-name="space" unicode=" " horiz-adv-x="569" 
 />
    <glyph glyph-name="exclam" unicode="!" horiz-adv-x="796" 
d="M281 420l-39 1010h315l-43 -1010h-233zM256 0v287h287v-287h-287z" />
    <glyph glyph-name="quotedbl" unicode="&#x22;" horiz-adv-x="985" 
d="M555 918v512h250v-512h-250zM180 918v512h250v-512h-250z" />
    <glyph glyph-name="numbersign" unicode="#" 
d="M1012 584v-164h-189l-59 -420h-180l59 420h-209l-61 -420h-180l59 420h-184v164h206l35 262h-180v164h205l57 420h182l-57 -420h209l57 420h181l-58 -420h166v-164h-190l-35 -262h166zM700 846h-208l-35 -262h209z" />
    <glyph glyph-name="dollar" unicode="$" 
d="M530 889v319q-112 -52 -112 -178q0 -47 28.5 -80t83.5 -61zM627 543v-314q118 50 118 156q0 99 -118 158zM530 1602h97v-148q185 0 334 -51l-27 -236q-143 62 -291 62q-10 0 -16 -2v-379q144 -57 185 -79q159 -82 207 -213q25 -66 25 -148q0 -191 -114 -296t-303 -128
v-168h-97v161q-8 -2 -22 -2q-26 0 -48 0.5t-46 3t-38 3t-40 5.5t-34.5 6t-38.5 8t-35.5 8.5t-42.5 10.5t-44 11l27 258q163 -88 324 -88q24 0 38 4v383q-148 58 -199 86q-159 87 -198 230q-14 52 -14 114q0 102 33 181.5t91 130t129.5 80t157.5 40.5v152z" />
    <glyph glyph-name="percent" unicode="%" horiz-adv-x="2048" 
d="M1493 139q127 0 127 213t-127 213q-39 0 -66 -20t-40.5 -54t-19 -67.5t-5.5 -71.5t5.5 -71.5t19 -67.5t40.5 -54t66 -20zM1493 -25q-164 0 -254 99t-90 278t90 278t254 99q163 0 251.5 -99t88.5 -278t-88.5 -278t-251.5 -99zM561 700q-164 0 -254 99t-90 278t90 278
t254 99q163 0 251.5 -99t88.5 -278t-88.5 -278t-251.5 -99zM561 864q127 0 127 213t-127 213q-39 0 -66 -20t-40.5 -54t-19 -67.5t-5.5 -71.5t5.5 -71.5t19 -67.5t40.5 -54t66 -20zM502 -45l884 1520h168l-884 -1520h-168z" />
    <glyph glyph-name="ampersand" unicode="&#x26;" horiz-adv-x="1478" 
d="M889 274l-318 355q-174 -91 -174 -230q0 -92 70 -151.5t172 -59.5q161 0 250 86zM635 899q68 35 127 92.5t59 114.5q0 71 -45.5 109t-111.5 38q-67 0 -115.5 -39t-48.5 -112q0 -17 4 -33t13.5 -33t17.5 -29.5t24.5 -30.5t24.5 -26l27 -27zM795 752l262 -287q82 94 90 311
h250q-13 -286 -183 -489l256 -287h-352l-96 127q-73 -74 -176 -113t-213 -39q-143 0 -257.5 47t-183.5 143t-69 226q0 135 68.5 229.5t232.5 163.5q-95 89 -125 128q-74 94 -74 216q0 78 39 142t103 103t139.5 60t152.5 21q62 0 120 -11.5t111.5 -36.5t93.5 -62t63.5 -92
t23.5 -122q0 -57 -14.5 -106.5t-37 -85.5t-60.5 -71t-74.5 -60t-89.5 -55z" />
    <glyph glyph-name="quotesingle" unicode="'" horiz-adv-x="569" 
d="M160 918v512h250v-512h-250z" />
    <glyph glyph-name="parenleft" unicode="(" horiz-adv-x="681" 
d="M408 1548h260q-72 -116 -121.5 -211t-92 -208.5t-63 -236.5t-20.5 -261q0 -247 76.5 -468.5t220.5 -449.5h-260q-161 220 -244.5 443t-83.5 475q0 268 80.5 478.5t247.5 438.5z" />
    <glyph glyph-name="parenright" unicode=")" horiz-adv-x="681" 
d="M272 -287h-258q143 230 220 451t77 467q0 263 -74 470t-223 447h258q167 -231 248.5 -440.5t81.5 -476.5q0 -251 -84.5 -473.5t-245.5 -444.5z" />
    <glyph glyph-name="asterisk" unicode="*" 
d="M991 1036l-284 -63l196 -219l-188 -136l-146 254l-155 -254l-187 136l201 219l-281 63l68 213l272 -116l-32 297h233l-35 -295l273 114z" />
    <glyph glyph-name="plus" unicode="+" horiz-adv-x="1228" 
d="M508 625v411h213v-411h414v-213h-414v-412h-213v412h-414v213h414z" />
    <glyph glyph-name="comma" unicode="," horiz-adv-x="569" 
d="M47 -225l131 512h297l-186 -512h-242z" />
    <glyph glyph-name="hyphen" unicode="-" horiz-adv-x="681" 
d="M610 438h-538v226h538v-226z" />
    <glyph glyph-name="period" unicode="." horiz-adv-x="569" 
d="M141 0v287h287v-287h-287z" />
    <glyph glyph-name="slash" unicode="/" horiz-adv-x="796" 
d="M43 -25l500 1479h213l-500 -1479h-213z" />
    <glyph glyph-name="zero" unicode="0" 
d="M567 188q35 0 64 13t49.5 31.5t37 52t27 61.5t17.5 73.5t10.5 75t5.5 79t2 71.5v66v67.5t-2 73t-5.5 79.5t-11 76t-18 74.5t-27 62.5t-37 52t-49 32t-63.5 13q-34 0 -62 -13t-48.5 -32t-36.5 -52t-26 -62.5t-17.5 -74.5t-11 -76t-5.5 -79.5t-2 -73v-67.5v-5v-66t2 -71.5
t5.5 -78t11 -74.5t17.5 -72.5t26 -61t36.5 -51t48.5 -31t62 -12.5zM567 -25q-495 0 -495 736q0 114 14 215.5t49.5 200t90 169.5t142 114.5t199.5 43.5q87 0 159 -24t123 -64.5t90 -99.5t63 -123t39 -140t20.5 -146t5.5 -146t-6 -145.5t-21 -145t-39 -139t-63.5 -121
t-90 -98t-122.5 -64t-158 -23.5z" />
    <glyph glyph-name="one" unicode="1" 
d="M162 1094l418 336h254v-1430h-287v1104l-242 -197z" />
    <glyph glyph-name="two" unicode="2" 
d="M1034 0h-950v240q16 16 90 84.5t131 122.5t136.5 140t132 156.5t90.5 150.5t38 142q0 63 -34.5 108t-86 65t-112.5 20q-153 0 -330 -115l-22 238q199 102 424 102q209 0 328.5 -106t119.5 -312q0 -59 -16.5 -121.5t-41.5 -116.5t-67 -116t-79.5 -109t-95 -108t-97 -100.5
t-99.5 -98.5q-28 -27 -42 -41h583v-225z" />
    <glyph glyph-name="three" unicode="3" 
d="M92 23l17 243q163 -65 317 -65q48 0 98 11.5t96.5 34.5t76.5 63.5t30 92.5q0 224 -315 224h-140v225h131q148 0 233 48t85 140q0 52 -20 89.5t-55 59t-77.5 31t-93.5 9.5q-166 0 -321 -76l-17 229q184 72 400 72q59 0 117 -8.5t124 -33.5t115.5 -64t82 -106.5
t32.5 -154.5q0 -135 -71.5 -215t-195.5 -127v-4q132 -18 202.5 -111t70.5 -229q0 -98 -34.5 -174.5t-89 -123t-128.5 -76.5t-146 -41t-149 -11q-211 0 -375 48z" />
    <glyph glyph-name="four" unicode="4" 
d="M291 510h358v620h-4zM33 297v231l534 902h357v-920h182v-213h-182v-297h-275v297h-616z" />
    <glyph glyph-name="five" unicode="5" 
d="M1004 1430v-213h-551l-7 -306q83 15 132 15q65 0 125.5 -12.5t123 -45t108 -83t74.5 -134t29 -190.5q0 -102 -35.5 -189.5t-104 -154t-175.5 -104.5t-242 -38q-166 0 -334 41l7 256q53 -22 82 -33t90.5 -24.5t119.5 -13.5q59 0 111.5 14t97 43t71 79t26.5 116
t-27.5 115.5t-75.5 77.5t-104 41t-121 13q-138 0 -256 -38l14 768h822z" />
    <glyph glyph-name="six" unicode="6" 
d="M979 1403l-37 -232q-134 58 -250 58q-72 0 -129.5 -26t-95 -68.5t-63.5 -101t-37.5 -119.5t-14.5 -128l4 -4q100 144 277 144q199 0 308.5 -118t109.5 -319q0 -239 -120 -376.5t-356 -137.5q-485 0 -485 666q0 87 8 167.5t27.5 163t50 152.5t77 131.5t106 105t141 68.5
t178.5 25q158 0 301 -51zM569 713q-50 0 -88 -22t-60.5 -60.5t-33 -85.5t-10.5 -103q0 -110 49 -182t149 -72q93 0 141 75t48 181q0 73 -19.5 132t-65 98t-110.5 39z" />
    <glyph glyph-name="seven" unicode="7" 
d="M102 1204v226h922v-238l-508 -1192h-311l530 1204h-633z" />
    <glyph glyph-name="eight" unicode="8" 
d="M334 741v4q-110 48 -174 135t-64 197q0 185 125.5 281t329.5 96q97 0 181.5 -20.5t152 -61t106.5 -108t39 -154.5q0 -104 -62 -200.5t-175 -141.5v-2q274 -128 274 -375q0 -106 -36.5 -186.5t-103.5 -130t-155.5 -74.5t-196.5 -25q-107 0 -196.5 24t-159 72.5t-108.5 129
t-39 186.5q0 118 65 204t197 150zM371 1069q0 -44 20 -79.5t57.5 -61.5t69.5 -41t78 -33q63 23 111.5 83t48.5 124q0 80 -47.5 130t-128.5 50q-85 0 -147 -45.5t-62 -126.5zM358 391q0 -87 64.5 -145t152.5 -58q89 0 147 52t58 139q0 170 -239 248q-87 -42 -135 -97
t-48 -139z" />
    <glyph glyph-name="nine" unicode="9" 
d="M162 27l37 231q131 -57 250 -57q72 0 129.5 26t95 68t63 100.5t37 119.5t14.5 128l-4 4q-97 -143 -276 -143q-199 0 -308.5 117.5t-109.5 318.5q0 240 119.5 377t355.5 137q486 0 486 -666q0 -87 -8 -167.5t-27.5 -163t-50 -152.5t-77 -131.5t-106 -105t-141 -68.5
t-178.5 -25q-155 0 -301 52zM571 717q98 0 145.5 76.5t47.5 193.5q0 110 -49.5 182t-149.5 72q-93 0 -140.5 -75t-47.5 -181q0 -73 19 -131.5t64.5 -97.5t110.5 -39z" />
    <glyph glyph-name="colon" unicode=":" horiz-adv-x="569" 
d="M141 768v287h287v-287h-287zM141 0v287h287v-287h-287z" />
    <glyph glyph-name="semicolon" unicode=";" horiz-adv-x="569" 
d="M47 -225l131 512h297l-186 -512h-242zM141 768v287h287v-287h-287z" />
    <glyph glyph-name="less" unicode="&#x3c;" horiz-adv-x="1228" 
d="M1135 193v-209l-1041 446v176l1041 447v-209l-764 -326z" />
    <glyph glyph-name="equal" unicode="=" horiz-adv-x="1228" 
d="M1135 848v-213h-1041v213h1041zM1135 401v-213h-1041v213h1041z" />
    <glyph glyph-name="greater" unicode="&#x3e;" horiz-adv-x="1228" 
d="M94 193l764 325l-764 326v209l1041 -447v-176l-1041 -446v209z" />
    <glyph glyph-name="question" unicode="?" horiz-adv-x="1024" 
d="M125 1159l-23 227q228 68 406 68q73 0 139.5 -12.5t127 -41.5t104.5 -70.5t70 -104t26 -138.5q0 -58 -20.5 -113t-53 -99t-71.5 -87t-76.5 -85t-68 -85t-47 -94.5t-11.5 -105.5h-252q0 91 23.5 168.5t52.5 122t73 94.5q11 12 37 39.5t37 40.5t29.5 37t26.5 42t15 42.5
t7 50.5q0 94 -68 140t-168 46q-136 0 -315 -82zM358 0v287h287v-287h-287z" />
    <glyph glyph-name="at" unicode="@" horiz-adv-x="1638" 
d="M850 913q-97 0 -163 -82t-66 -180q0 -74 41.5 -121t111.5 -47q95 0 161 83t66 184q0 73 -41.5 118t-109.5 45zM1292 293h174q-217 -318 -647 -318q-109 0 -214 29t-201 90t-169 146.5t-116 208.5t-43 266q0 151 60 287t163.5 235.5t251.5 158t317 58.5q102 0 199.5 -22
t187.5 -69.5t158.5 -116.5t109 -170.5t40.5 -223.5q0 -119 -41 -219.5t-101.5 -163t-133.5 -106.5t-134 -62t-106 -18q-46 0 -78 27.5t-33 78.5h-4q-95 -106 -207 -106q-130 0 -223.5 96t-93.5 242q0 203 123.5 348t297.5 145q151 0 238 -131l25 98h172l-113 -497
q-14 -54 -14 -70q0 -31 30 -31q88 0 160 94t72 269q0 96 -32.5 171.5t-84 121t-123.5 75.5t-142.5 41t-148.5 11q-125 0 -234 -45.5t-184 -121t-118 -176t-43 -208.5q0 -238 150 -394.5t380 -156.5q320 0 473 129z" />
    <glyph glyph-name="A" unicode="A" horiz-adv-x="1478" 
d="M940 553l-207 590h-4l-207 -590h418zM18 0l557 1430h324l561 -1430h-317l-123 328h-580l-125 -328h-297z" />
    <glyph glyph-name="B" unicode="B" horiz-adv-x="1251" 
d="M453 639v-414h135q56 0 103 8.5t93 28.5t72.5 61.5t26.5 100.5q0 54 -17.5 93.5t-44.5 62.5t-68 36.5t-79 18t-86 4.5h-135zM453 1204v-352h116q271 0 271 174q0 48 -17 82t-42 52.5t-65 28.5t-73 12.5t-80 2.5h-110zM166 0v1430h500q62 0 119 -7.5t121.5 -32t111 -63
t77.5 -106.5t31 -158q0 -126 -77.5 -211t-206.5 -109v-4q146 -14 236.5 -103.5t90.5 -221.5q0 -74 -18.5 -136t-49 -104t-74 -74t-87.5 -50.5t-95.5 -30t-93.5 -15.5t-85 -4h-500z" />
    <glyph glyph-name="C" unicode="C" horiz-adv-x="1251" 
d="M1194 260l12 -240q-187 -45 -325 -45q-176 0 -318.5 44.5t-247.5 131.5t-162 224t-57 315q0 364 209 564t576 200q173 0 323 -59l-20 -242q-136 76 -310 76q-217 0 -348 -147t-131 -371q0 -146 57 -261t168.5 -182t260.5 -67q86 0 174 16.5t139 42.5z" />
    <glyph glyph-name="D" unicode="D" horiz-adv-x="1478" 
d="M166 0v1430h391q825 0 825 -715t-825 -715h-391zM453 1204v-979h159q91 0 175 33.5t150.5 94.5t106 155t39.5 207t-39.5 207t-106 154.5t-150.5 94t-175 33.5h-159z" />
    <glyph glyph-name="E" unicode="E" 
d="M166 0v1430h844v-226h-557v-352h510v-225h-510v-402h561v-225h-848z" />
    <glyph glyph-name="F" unicode="F" horiz-adv-x="1024" 
d="M166 0v1430h795v-226h-508v-352h483v-225h-483v-627h-287z" />
    <glyph glyph-name="G" unicode="G" horiz-adv-x="1478" 
d="M1300 1395l-18 -242q-80 37 -179.5 56.5t-189.5 19.5q-243 0 -380.5 -145.5t-137.5 -372.5q0 -146 57 -261t168.5 -182t260.5 -67q106 0 188 20v373h-303v225h577v-770q-274 -74 -462 -74q-176 0 -318.5 44.5t-247.5 131.5t-162 224t-57 315q0 364 209 564t576 200
q223 0 419 -59z" />
    <glyph glyph-name="H" unicode="H" horiz-adv-x="1478" 
d="M166 0v1430h287v-578h573v578h287v-1430h-287v627h-573v-627h-287z" />
    <glyph glyph-name="I" unicode="I" horiz-adv-x="569" 
d="M141 0v1430h287v-1430h-287z" />
    <glyph glyph-name="J" unicode="J" horiz-adv-x="796" 
d="M45 2v248q70 -25 137 -25q39 0 69 9t49.5 22.5t33 36.5t20.5 41.5t10.5 48.5t4 47t0.5 47v953h286v-1090q0 -48 -12 -96.5t-41.5 -97.5t-73 -86.5t-112 -61t-152.5 -23.5q-111 0 -219 27z" />
    <glyph glyph-name="K" unicode="K" horiz-adv-x="1366" 
d="M166 0v1430h287v-615l516 615h352l-588 -674l613 -756h-375l-514 664h-4v-664h-287z" />
    <glyph glyph-name="L" unicode="L" horiz-adv-x="1024" 
d="M166 0v1430h287v-1205h555v-225h-842z" />
    <glyph glyph-name="M" unicode="M" horiz-adv-x="1933" 
d="M166 0v1430h459l340 -1084h4l340 1084h458v-1430h-274v1180h-4l-385 -1180h-275l-385 1180l-4 -4v-1176h-274z" />
    <glyph glyph-name="N" unicode="N" horiz-adv-x="1478" 
d="M152 0v1430h352l545 -1070h4v1070h274v-1430h-350l-547 1069h-4v-1069h-274z" />
    <glyph glyph-name="O" unicode="O" horiz-adv-x="1593" 
d="M96 719q0 220 79.5 384.5t239 257.5t382.5 93q220 0 379.5 -94t240 -259t80.5 -382q0 -218 -79.5 -384.5t-239.5 -263t-381 -96.5q-225 0 -384.5 95.5t-238 261.5t-78.5 387zM395 719q0 -80 13.5 -153t44 -140.5t76 -116.5t114.5 -78.5t154 -29.5t154 29.5t114 78.5
t75.5 116.5t44 140.5t13.5 153q0 78 -14 150t-45.5 138t-77 115t-113.5 78t-151 29t-151 -29t-114 -78t-77.5 -115t-45.5 -138t-14 -150z" />
    <glyph glyph-name="P" unicode="P" 
d="M428 1204v-436h100q57 0 103.5 10.5t86 33.5t61.5 66t22 103q0 117 -76 170t-197 53h-100zM141 0v1430h363q99 0 182 -12t161.5 -42.5t133 -78t87 -124.5t32.5 -176q0 -98 -28 -175.5t-77 -129t-119.5 -85.5t-151 -49t-175.5 -15h-121v-543h-287z" />
    <glyph glyph-name="Q" unicode="Q" horiz-adv-x="1593" 
d="M1460 -270h-346l-250 250q-25 -5 -67 -5q-225 0 -384.5 95.5t-238 261.5t-78.5 387q0 220 79.5 384.5t239 257.5t382.5 93q220 0 379.5 -94t240 -259t80.5 -382q0 -234 -92.5 -409t-267.5 -259zM395 719q0 -80 13.5 -153t44 -140.5t76 -116.5t114.5 -78.5t154 -29.5
t154 29.5t114 78.5t75.5 116.5t44 140.5t13.5 153q0 78 -14 150t-45.5 138t-77 115t-113.5 78t-151 29t-151 -29t-114 -78t-77.5 -115t-45.5 -138t-14 -150z" />
    <glyph glyph-name="R" unicode="R" horiz-adv-x="1251" 
d="M428 1204v-385h94q49 0 86.5 3.5t80.5 15.5t71 33t46.5 58.5t18.5 88.5q0 50 -18.5 85.5t-46 54.5t-71 30t-80 13.5t-87.5 2.5h-94zM141 0v1430h310q227 0 322 -14q236 -35 311 -183q40 -78 40 -191q0 -128 -80.5 -220.5t-214.5 -110.5v-4q52 -4 88 -45t64 -103l229 -559
h-319l-172 446q-32 84 -72 116t-127 32h-92v-594h-287z" />
    <glyph glyph-name="S" unicode="S" 
d="M961 1403l-27 -236q-143 62 -291 62q-40 0 -77 -9.5t-71.5 -31t-55.5 -62t-21 -96.5q0 -39 21.5 -70.5t57.5 -53t83 -41t99 -39.5t104 -43t99 -56.5t83 -75.5t57.5 -104t21.5 -139q0 -91 -28 -164.5t-77 -123t-117.5 -83t-146.5 -48t-167 -14.5q-26 0 -48 0.5t-46 3
t-38 3t-40 5.5t-34.5 6t-38.5 8t-35.5 8.5t-42.5 10.5t-44 11l27 258q163 -88 324 -88q59 0 114.5 18t97 61.5t41.5 104.5q0 43 -21.5 77.5t-57.5 58t-83 44t-99 41t-104 43.5t-99 55.5t-83 74t-57.5 102.5t-21.5 137q0 115 42 202t114 136.5t158 73.5t185 24q191 0 343 -51
z" />
    <glyph glyph-name="T" unicode="T" 
d="M426 0v1204h-410v226h1106v-226h-409v-1204h-287z" />
    <glyph glyph-name="U" unicode="U" horiz-adv-x="1478" 
d="M156 516v914h286v-826q0 -194 70 -298.5t227 -104.5t227 104.5t70 298.5v826h287v-914q0 -541 -584 -541q-583 0 -583 541z" />
    <glyph glyph-name="V" unicode="V" horiz-adv-x="1366" 
d="M512 0l-492 1430h308l366 -1123h4l363 1123h285l-482 -1430h-352z" />
    <glyph glyph-name="W" unicode="W" horiz-adv-x="2048" 
d="M399 0l-379 1430h302l266 -1143h4l244 1143h389l252 -1143h4l268 1143h279l-373 -1430h-369l-258 1143h-4l-254 -1143h-371z" />
    <glyph glyph-name="X" unicode="X" horiz-adv-x="1366" 
d="M20 0l469 743l-426 687h332l299 -510l305 510h308l-430 -687l469 -743h-338l-330 557l-334 -557h-324z" />
    <glyph glyph-name="Y" unicode="Y" horiz-adv-x="1366" 
d="M545 0v565l-522 865h335l338 -601l344 601h303l-512 -865v-565h-286z" />
    <glyph glyph-name="Z" unicode="Z" 
d="M74 0v233l671 971h-645v226h951v-234l-678 -971h692v-225h-991z" />
    <glyph glyph-name="bracketleft" unicode="[" horiz-adv-x="681" 
d="M147 -287v1835h459v-200h-196v-1434h196v-201h-459z" />
    <glyph glyph-name="backslash" unicode="\" horiz-adv-x="796" 
d="M541 -25l-500 1479h213l500 -1479h-213z" />
    <glyph glyph-name="bracketright" unicode="]" horiz-adv-x="681" 
d="M76 1548h459v-1835h-459v201h196v1434h-196v200z" />
    <glyph glyph-name="asciicircum" unicode="^" horiz-adv-x="1228" 
d="M348 641h-213l383 789h193l383 -789h-213l-267 573z" />
    <glyph glyph-name="underscore" unicode="_" horiz-adv-x="1024" 
d="M0 -154h1024v-102h-1024v102z" />
    <glyph glyph-name="grave" unicode="`" horiz-adv-x="569" 
d="M340 1497l170 -299h-170l-281 299h281z" />
    <glyph glyph-name="a" unicode="a" 
d="M197 764l-9 235q79 37 179 58.5t188 21.5q241 0 348 -105t107 -339v-135q0 -108 4 -264q3 -109 12 -236h-242q-4 20 -12 158h-4q-46 -85 -137 -134t-189 -49q-95 0 -177.5 35.5t-136.5 109t-54 169.5q0 213 180 301q124 61 354 61h152q0 125 -56.5 176.5t-181.5 51.5
q-174 0 -325 -115zM336 305q0 -64 48 -96.5t126 -32.5q121 0 192 94q58 76 58 217h-119q-305 0 -305 -182z" />
    <glyph glyph-name="b" unicode="b" horiz-adv-x="1251" 
d="M418 530q0 -47 7.5 -93t25.5 -92t44.5 -80t69 -55.5t94.5 -21.5q64 0 111.5 32t72.5 85t36.5 109.5t11.5 115.5q0 58 -11 113t-35 107t-71 84t-110 32t-112 -31.5t-77.5 -82t-42.5 -107.5t-14 -115zM141 0v1536h275v-616h4q121 159 315 159q95 0 170.5 -29.5t126 -80
t84 -121t48 -149.5t14.5 -169q0 -113 -24.5 -209.5t-75 -175.5t-138.5 -124.5t-205 -45.5q-96 0 -181.5 37t-141.5 117h-4v-129h-267z" />
    <glyph glyph-name="c" unicode="c" horiz-adv-x="909" 
d="M850 1044l-25 -217q-83 39 -186 39q-127 0 -203 -92t-76 -242q0 -153 73 -248.5t212 -95.5q93 0 211 50l12 -228q-112 -35 -274 -35q-169 0 -287.5 73t-175.5 196.5t-57 287.5q0 115 34 214t97 173.5t160.5 117t218.5 42.5q150 0 266 -35z" />
    <glyph glyph-name="d" unicode="d" horiz-adv-x="1251" 
d="M360 530q0 -59 11.5 -115.5t36.5 -109.5t72.5 -85t111.5 -32q65 0 114 31.5t75.5 84t39.5 109.5t13 117q0 58 -14 115t-42.5 107.5t-77.5 82t-112 31.5t-110 -32t-71.5 -84t-35.5 -107t-11 -113zM844 0v119h-4q-116 -144 -324 -144q-94 0 -170 30t-126 81.5t-83.5 123.5
t-48 151t-14.5 169t14.5 169t48 149.5t83.5 121t125.5 80t170.5 29.5q102 0 177.5 -35.5t137.5 -111.5h5v604h274v-1536h-266z" />
    <glyph glyph-name="e" unicode="e" 
d="M336 631h467q-7 110 -61 179t-162 69q-111 0 -173 -68t-71 -180zM987 283v-224q-153 -84 -362 -84q-261 0 -406 144t-145 403q0 116 31 216t90 176.5t153.5 120.5t214.5 44q115 0 202.5 -31.5t143.5 -86t91.5 -136.5t50 -174.5t14.5 -208.5h-729q9 -126 90.5 -196
t210.5 -70q159 0 350 107z" />
    <glyph glyph-name="f" unicode="f" horiz-adv-x="796" 
d="M242 0v854h-203v201h203v147q0 162 88.5 260.5t247.5 98.5q98 0 200 -23l-22 -227q-1 1 -8.5 5t-10 5.5t-10 5.5t-12 5.5t-12.5 4.5t-14.5 4.5t-15 3.5t-17.5 2.5t-19 0.5q-64 0 -92.5 -46t-28.5 -116v-131h240v-201h-240v-854h-274z" />
    <glyph glyph-name="g" unicode="g" horiz-adv-x="1251" 
d="M594 213q62 0 110 26t76 71.5t42 103t14 125.5q0 144 -58 235.5t-172 91.5q-67 0 -116.5 -29t-76.5 -78t-40 -105.5t-13 -121.5q0 -76 24.5 -146.5t79.5 -121.5t130 -51zM848 1055h262v-953q0 -91 -15 -168.5t-54 -151t-100.5 -124.5t-160.5 -82t-227 -31q-194 0 -365 72
l23 233q68 -36 157 -64t150 -28q63 0 113 14t83 35t56.5 55.5t36 67t19.5 78.5t8.5 79.5t1.5 80.5h-5q-41 -72 -129 -120t-198 -48q-91 0 -164 28.5t-122 77t-82 117t-47.5 145.5t-14.5 164q0 79 16 155t51 147.5t85.5 125.5t126.5 86.5t167 32.5q218 0 324 -168h4v144z" />
    <glyph glyph-name="h" unicode="h" horiz-adv-x="1251" 
d="M141 0v1536h275v-625h4q54 78 140.5 123t191.5 45q180 0 269 -112.5t89 -300.5v-666h-274v563q0 42 -1 68t-6 67t-16.5 66t-30.5 51t-51 38.5t-74 12.5q-70 0 -120.5 -34.5t-75 -91t-35 -111.5t-10.5 -113v-516h-275z" />
    <glyph glyph-name="i" unicode="i" horiz-adv-x="569" 
d="M147 0v1055h275v-1055h-275zM147 1247v262h275v-262h-275z" />
    <glyph glyph-name="j" unicode="j" horiz-adv-x="569" 
d="M-31 -438l11 196q58 3 88.5 11t49.5 31.5t24 58t5 100.5v1096h275v-1133q0 -51 -6.5 -97.5t-27 -99.5t-54 -91t-92.5 -63.5t-138 -25.5q-75 0 -135 17zM147 1247v262h275v-262h-275z" />
    <glyph glyph-name="k" unicode="k" 
d="M147 0v1536h275v-903h4l328 422h323l-393 -471l442 -584h-348l-352 512h-4v-512h-275z" />
    <glyph glyph-name="l" unicode="l" horiz-adv-x="569" 
d="M147 0v1536h275v-1536h-275z" />
    <glyph glyph-name="m" unicode="m" horiz-adv-x="1820" 
d="M137 0v1055h256v-148h4q60 90 144 131t170 41q227 0 311 -186q45 91 136 138.5t194 47.5q95 0 161.5 -30.5t103.5 -88.5t53 -129.5t16 -164.5v-666h-275v629q0 29 -0.5 44.5t-3.5 44.5t-8.5 46t-17 39t-28 34t-42 20.5t-58.5 8.5q-204 0 -204 -354v-512h-275v629
q0 29 -0.5 44.5t-3.5 44.5t-8.5 46t-17 39t-28 34t-42 20.5t-58.5 8.5q-204 0 -204 -354v-512h-275z" />
    <glyph glyph-name="n" unicode="n" horiz-adv-x="1251" 
d="M141 0v1055h260v-144h5q119 168 346 168q180 0 269 -112.5t89 -300.5v-666h-274v563q0 42 -1 68t-6 67t-16.5 66t-30.5 51t-51 38.5t-74 12.5q-70 0 -120.5 -34.5t-75 -91t-35 -111.5t-10.5 -113v-516h-275z" />
    <glyph glyph-name="o" unicode="o" horiz-adv-x="1251" 
d="M74 520q0 255 156 407t395 152q240 0 396.5 -152t156.5 -407q0 -114 -37.5 -213t-107 -173t-175 -116.5t-233.5 -42.5q-169 0 -296 73.5t-191 196t-64 275.5zM360 553q0 -56 7.5 -105.5t26 -98t47.5 -83.5t76.5 -56.5t107.5 -21.5q76 0 130 31.5t82.5 86t41 115
t12.5 132.5q0 84 -28 153.5t-90 114.5t-148 45q-126 0 -195.5 -92.5t-69.5 -220.5z" />
    <glyph glyph-name="p" unicode="p" horiz-adv-x="1251" 
d="M141 -430v1485h262v-150h5q104 174 327 174q95 0 170.5 -29.5t126 -80t84 -121t48 -149.5t14.5 -169q0 -113 -24.5 -209.5t-75.5 -175.5t-140.5 -124.5t-208.5 -45.5q-95 0 -168 31.5t-141 114.5h-4v-551h-275zM664 866q-63 0 -112 -31.5t-77.5 -82t-42.5 -107.5
t-14 -115q0 -47 7.5 -93t25.5 -92t44.5 -80t69 -55.5t94.5 -21.5q64 0 111.5 32t72.5 85t36.5 109.5t11.5 115.5q0 58 -11 113t-35 107t-71 84t-110 32z" />
    <glyph glyph-name="q" unicode="q" horiz-adv-x="1251" 
d="M836 -430v551h-5q-68 -83 -141 -114.5t-168 -31.5q-96 0 -173 30t-127.5 81.5t-84.5 123.5t-48.5 151t-14.5 169t14.5 169t48.5 149.5t84.5 121t127.5 80t173 29.5q217 0 322 -174h4v150h262v-1485h-274zM588 866q-63 0 -110 -32t-71.5 -84t-35.5 -107t-11 -113
q0 -59 11.5 -115.5t36.5 -109.5t72.5 -85t111.5 -32q65 0 114 31.5t75.5 84t39.5 109.5t13 117q0 58 -14 115t-42.5 107.5t-77.5 82t-112 31.5z" />
    <glyph glyph-name="r" unicode="r" horiz-adv-x="796" 
d="M147 0v1055h244v-240h4q11 86 94 175t195 89q55 0 84 -8v-276q-39 22 -123 22q-41 0 -74 -11.5t-55.5 -35t-39 -48.5t-26.5 -64t-16 -67.5t-8.5 -73t-3 -67.5t-0.5 -63v-387h-275z" />
    <glyph glyph-name="s" unicode="s" horiz-adv-x="909" 
d="M786 1040l-18 -206q-130 45 -246 45q-41 0 -75.5 -10t-60.5 -37.5t-26 -69.5q0 -34 26.5 -57t68.5 -38t93 -29.5t102 -37.5t93 -55.5t68.5 -90.5t26.5 -135q0 -89 -37.5 -157t-101 -108t-140.5 -59.5t-164 -19.5q-144 0 -311 45l16 226q140 -70 271 -70q29 0 58 6
t57.5 19.5t46.5 40.5t18 63q0 42 -26.5 69.5t-68.5 43.5t-93 29.5t-101.5 34t-92.5 51t-68.5 86.5t-26.5 133q0 82 34 146.5t92.5 103t131 58t155.5 19.5q27 0 51.5 -1t50.5 -4t41.5 -4.5t43.5 -7t36 -7t40.5 -8t35.5 -7.5z" />
    <glyph glyph-name="t" unicode="t" horiz-adv-x="796" 
d="M231 317v537h-202v201h202v211l275 88v-299h244v-201h-244v-492q0 -174 129 -174q78 0 125 29l8 -217q-89 -25 -203 -25q-159 0 -246.5 91.5t-87.5 250.5z" />
    <glyph glyph-name="u" unicode="u" horiz-adv-x="1251" 
d="M1110 1055v-1055h-260v143h-4q-138 -168 -346 -168q-180 0 -269.5 113t-89.5 301v666h275v-563q0 -36 0.5 -58t4 -58t10 -58.5t19.5 -50t31.5 -42.5t47 -26t65.5 -11q57 0 101.5 24t70 60.5t42 85t22.5 92.5t6 89v516h274z" />
    <glyph glyph-name="v" unicode="v" 
d="M416 0l-391 1055h294l263 -768h4l254 768h274l-389 -1055h-309z" />
    <glyph glyph-name="w" unicode="w" horiz-adv-x="1820" 
d="M379 0l-356 1055h290l234 -781h4l213 781h319l230 -781h4l219 781h262l-323 -1055h-324l-229 805h-4l-226 -805h-313z" />
    <glyph glyph-name="x" unicode="x" 
d="M381 553l-326 502h324l207 -344l202 344h291l-315 -502l356 -553h-327l-236 393l-238 -393h-301z" />
    <glyph glyph-name="y" unicode="y" 
d="M326 1055l254 -770h4l254 770h278l-395 -1047q-66 -174 -84 -212q-71 -155 -175 -210q-75 -41 -179 -41q-93 0 -195 29l18 203q55 -19 142 -19q82 0 130 51.5t48 137.5l-403 1108h303z" />
    <glyph glyph-name="z" unicode="z" horiz-adv-x="1024" 
d="M96 842v213h836v-226l-524 -616h542v-213h-876v223l534 619h-512z" />
    <glyph glyph-name="braceleft" unicode="{" horiz-adv-x="681" 
d="M37 543v176q68 0 118 45.5t50 144.5v363q0 68 26.5 122.5t70.5 87t96.5 49.5t109.5 17h154v-164h-93q-63 0 -82.5 -35.5t-19.5 -113.5v-354q0 -68 -22.5 -118t-60 -76t-72.5 -38t-74 -16v-4q32 -3 58 -9t60 -23.5t56.5 -44t38.5 -74.5t16 -111v-340q0 -79 19.5 -114.5
t82.5 -35.5h93v-164h-154q-126 0 -214.5 72.5t-88.5 204.5v348q0 108 -50 156.5t-118 48.5z" />
    <glyph glyph-name="bar" unicode="|" horiz-adv-x="454" 
d="M121 1536h213v-2048h-213v2048z" />
    <glyph glyph-name="braceright" unicode="}" horiz-adv-x="681" 
d="M645 719v-176q-68 0 -118 -48.5t-50 -156.5v-348q0 -91 -44 -155.5t-111 -93t-148 -28.5h-154v164h93q63 0 82.5 35.5t19.5 114.5v340q0 63 16 111t38.5 74.5t56.5 44t60 23.5t58 9v4q-39 4 -74 16t-72.5 38t-60 76t-22.5 118v354q0 78 -19.5 113.5t-82.5 35.5h-93v164
h154q127 0 215 -71t88 -205v-363q0 -99 50 -144.5t118 -45.5z" />
    <glyph glyph-name="asciitilde" unicode="~" horiz-adv-x="1228" 
d="M215 336l-74 180q94 180 248 180q70 0 123.5 -18t116.5 -51q7 -4 34.5 -17.5t37.5 -18t33 -14t37.5 -13.5t34.5 -7.5t38 -3.5q26 0 49.5 11.5t46 36t37 44.5t37.5 55l73 -180q-107 -180 -235 -180q-45 0 -90.5 11.5t-73.5 24t-74 36.5q-47 25 -71.5 36.5t-67 23
t-84.5 11.5q-64 0 -105 -40.5t-71 -106.5z" />
    <glyph glyph-name="uni00A0" unicode="&#xa0;" horiz-adv-x="569" 
 />
    <glyph glyph-name="exclamdown" unicode="&#xa1;" horiz-adv-x="796" 
d="M240 -375l43 1010h227l45 -1010h-315zM252 768v287h287v-287h-287z" />
    <glyph glyph-name="cent" unicode="&#xa2;" 
d="M528 297l174 569q-109 -13 -174 -105t-65 -229q0 -147 65 -235zM821 1245h119l-57 -186q17 -1 69 -15l-24 -217q-57 26 -107 33l-198 -645q53 -27 125 -27q92 0 210 50l13 -228q-112 -35 -275 -35q-79 0 -143 17l-55 -176h-119l65 213q-131 65 -199.5 196.5t-68.5 306.5
q0 115 34 214t97 173.5t160.5 117t218.5 42.5q57 0 82 -4z" />
    <glyph glyph-name="sterling" unicode="&#xa3;" 
d="M111 0v213h180v449h-156v163h156v172q0 134 66 239t177.5 161.5t247.5 56.5q151 0 267 -35l-15 -225q-4 1 -28.5 8t-32 8.5t-29 6.5t-35 6.5t-33.5 3.5t-40 2q-127 0 -192.5 -77t-65.5 -189v-138h301v-163h-301v-449h456v-213h-923z" />
    <glyph glyph-name="currency" unicode="&#xa4;" 
d="M981 1251l121 -121l-119 -118q94 -133 94 -291q0 -156 -94 -295l119 -119l-121 -121l-119 119q-136 -94 -293 -94t-293 94l-118 -119l-121 121l119 119q-95 136 -95 293q0 156 95 293l-119 118l121 121l118 -118q131 94 293 94q157 0 293 -94zM287 719
q0 -122 82.5 -208.5t199.5 -86.5t200 86.5t83 208.5t-83 208.5t-200 86.5t-199.5 -86.5t-82.5 -208.5z" />
    <glyph glyph-name="yen" unicode="&#xa5;" 
d="M1161 1430l-354 -674h201v-164h-287l-14 -27v-100h301v-164h-301v-301h-275v301h-301v164h301v100l-16 27h-285v164h205l-356 674h288l310 -631l315 631h268z" />
    <glyph glyph-name="brokenbar" unicode="&#xa6;" horiz-adv-x="454" 
d="M121 1382h213v-716h-213v716zM121 358h213v-716h-213v716z" />
    <glyph glyph-name="section" unicode="&#xa7;" 
d="M348 633q0 -46 45 -85.5t100.5 -61.5t126 -49.5t99.5 -45.5q74 64 74 154q0 41 -21.5 71.5t-62.5 52t-83 37t-102.5 37t-101.5 41.5q-30 -22 -52 -63t-22 -88zM924 1413l-23 -223q-134 51 -293 51q-196 0 -196 -139q-1 -38 23.5 -68t66 -49.5t95 -40t109.5 -38.5
t110 -46.5t96 -62.5t68 -88t26 -121q0 -82 -40.5 -152.5t-111.5 -109.5q65 -38 102 -100.5t37 -133.5q0 -88 -39.5 -160.5t-104 -117.5t-144.5 -69t-164 -24q-137 0 -379 60l18 233q193 -80 344 -80q207 0 207 142q0 42 -33 74.5t-85.5 55.5t-116 44.5t-127 49.5t-116 63
t-85.5 91.5t-33 129.5q0 183 158 276q-73 50 -108 106.5t-35 137.5q0 87 39.5 156t104.5 110t142 62.5t160 21.5q105 0 328 -41z" />
    <glyph glyph-name="dieresis" unicode="&#xa8;" horiz-adv-x="569" 
d="M377 1485h237v-238h-237v238zM193 1247h-238v238h238v-238z" />
    <glyph glyph-name="copyright" unicode="&#xa9;" horiz-adv-x="1638" 
d="M1346 715q0 251 -152 413t-375 162q-225 0 -375.5 -161.5t-150.5 -413.5q0 -168 69.5 -300t189 -204t267.5 -72q146 0 266 72t190.5 204.5t70.5 299.5zM1036 596h170q-23 -146 -122 -228.5t-236 -82.5q-187 0 -302.5 124t-115.5 312q0 191 112 313.5t302 122.5
q141 0 238 -80t118 -227h-164q-13 69 -65.5 106t-126.5 37q-101 0 -157 -73.5t-56 -196.5q0 -116 60.5 -195t156.5 -79q78 0 129.5 38.5t58.5 108.5zM80 715q0 150 58.5 287t157.5 236t236 157.5t287 58.5t287 -58.5t236.5 -157.5t158 -236t58.5 -287t-58.5 -287
t-158 -236.5t-236.5 -158t-287 -58.5t-287 58.5t-236 158t-157.5 236.5t-58.5 287z" />
    <glyph glyph-name="ordfeminine" unicode="&#xaa;" horiz-adv-x="739" 
d="M682 803h-172l-6 86h-4q-44 -103 -193 -103q-61 0 -115 16.5t-94.5 59.5t-40.5 105q0 49 15 87.5t44 63t62 41t77.5 24t82 10.5t82.5 3h76q0 77 -37.5 106t-112.5 29q-113 0 -215 -63v135q99 51 246 51q155 0 225 -63.5t70 -214.5q0 -234 10 -373zM233 977q0 -36 34 -52
t73 -16q74 0 116 50.5t42 125.5h-62q-28 0 -43 -0.5t-43.5 -3t-45 -9.5t-35 -18.5t-27.5 -31t-9 -45.5z" />
    <glyph glyph-name="guillemotleft" unicode="&#xab;" 
d="M557 551l242 420h258l-226 -420l226 -420h-258zM100 551l242 420h258l-225 -420l225 -420h-258z" />
    <glyph glyph-name="logicalnot" unicode="&#xac;" horiz-adv-x="1228" 
d="M922 221v414h-828v213h1041v-627h-213z" />
    <glyph glyph-name="uni00AD" unicode="&#xad;" horiz-adv-x="681" 
d="M610 438h-538v226h538v-226z" />
    <glyph glyph-name="registered" unicode="&#xae;" horiz-adv-x="1638" 
d="M80 715q0 150 58.5 287t157.5 236t236 157.5t287 58.5t287 -58.5t236.5 -157.5t158 -236t58.5 -287t-58.5 -287t-158 -236.5t-236.5 -158t-287 -58.5t-287 58.5t-236 158t-157.5 236.5t-58.5 287zM293 715q0 -168 69.5 -300t189 -204t267.5 -72q146 0 266 72t190.5 204.5
t70.5 299.5q0 251 -152 413t-375 162q-225 0 -375.5 -161.5t-150.5 -413.5zM522 307v821h309q164 0 246 -56t82 -189q0 -202 -217 -219l217 -357h-180l-197 348h-84v-348h-176zM698 791h144q72 0 106.5 21.5t34.5 86.5q0 94 -160 94h-125v-202z" />
    <glyph glyph-name="macron" unicode="&#xaf;" horiz-adv-x="569" 
d="M580 1266h-590v164h590v-164z" />
    <glyph glyph-name="degree" unicode="&#xb0;" horiz-adv-x="819" 
d="M410 1305q-80 0 -130.5 -50.5t-50.5 -130.5q0 -79 50.5 -129.5t130.5 -50.5t130 50t50 130t-50.5 130.5t-129.5 50.5zM410 1454q136 0 232.5 -96.5t96.5 -233.5q0 -140 -94.5 -234.5t-234.5 -94.5q-143 0 -236.5 93.5t-93.5 235.5q0 136 97 233t233 97z" />
    <glyph glyph-name="plusminus" unicode="&#xb1;" horiz-adv-x="1228" 
d="M508 766v270h213v-270h414v-213h-414v-272h-213v272h-414v213h414zM94 0v213h1041v-213h-1041z" />
    <glyph glyph-name="twosuperior" unicode="&#xb2;" horiz-adv-x="739" 
d="M680 578h-619v167q32 11 96.5 62t125.5 115q155 166 155 249q0 51 -32 79t-93 28q-117 0 -215 -70l-14 178q127 68 276 68q141 0 228.5 -64.5t87.5 -199.5q0 -114 -125 -256q-54 -60 -114.5 -107.5t-106.5 -68.5v-4h350v-176z" />
    <glyph glyph-name="threesuperior" unicode="&#xb3;" horiz-adv-x="739" 
d="M94 1237l-10 168q140 49 264 49q42 0 84.5 -6t86.5 -21.5t78 -39t55.5 -60.5t21.5 -84q0 -172 -170 -215v-4q86 -6 134 -61.5t48 -135.5q0 -56 -23 -101.5t-61 -74.5t-87.5 -49t-100.5 -28.5t-103 -8.5q-126 0 -258 35l10 170q138 -41 222 -41q64 0 114 28t50 77
q0 100 -150 100q-74 0 -115 -6v172q18 1 57 -0.5t62 -1.5q32 0 63.5 9.5t57 32.5t25.5 56q0 94 -132 94q-131 0 -223 -53z" />
    <glyph glyph-name="acute" unicode="&#xb4;" horiz-adv-x="569" 
d="M59 1198l170 299h281l-281 -299h-170z" />
    <glyph glyph-name="mu" unicode="&#xb5;" horiz-adv-x="1251" 
d="M141 -430v1485h275v-563q0 -36 0.5 -58t4 -58t10 -58.5t19.5 -50t31.5 -42.5t47 -26t65.5 -11q57 0 101.5 24t70 60.5t42 85t22.5 92.5t6 89v516h274v-1055h-260v143h-4q-26 -63 -90.5 -115.5t-137.5 -52.5q-64 0 -111 13t-87 57h-4v-475h-275z" />
    <glyph glyph-name="paragraph" unicode="&#xb6;" horiz-adv-x="1269" 
d="M453 -254v952q-211 0 -330 97t-119 262q0 105 36 179t104 115.5t154 60t198 18.5h600v-1684h-213v1520h-217v-1520h-213z" />
    <glyph glyph-name="periodcentered" unicode="&#xb7;" horiz-adv-x="569" 
d="M285 424q-70 0 -114 44.5t-44 113.5t44 113t114 44t113.5 -44t43.5 -113t-43.5 -113.5t-113.5 -44.5z" />
    <glyph glyph-name="cedilla" unicode="&#xb8;" horiz-adv-x="569" 
d="M154 -412l41 111q6 -2 23.5 -7.5t28 -8.5t27 -7t32.5 -6t32 -2q45 0 76.5 17t31.5 55q0 37 -25.5 55.5t-64.5 18.5q-31 0 -86 -19l-30 53l120 152h129l-94 -109l4 -4q8 1 24.5 5t31 6t28.5 2q66 0 115 -37t49 -105q0 -57 -22.5 -99.5t-60.5 -66.5t-81.5 -35.5
t-91.5 -11.5q-146 0 -237 43z" />
    <glyph glyph-name="onesuperior" unicode="&#xb9;" horiz-adv-x="739" 
d="M25 1237l284 205h193v-864h-213v655l-158 -121z" />
    <glyph glyph-name="ordmasculine" unicode="&#xba;" horiz-adv-x="813" 
d="M410 1454q151 0 255.5 -92t104.5 -240q0 -153 -103.5 -244.5t-258.5 -91.5t-260 91.5t-105 244.5q0 149 107.5 240.5t259.5 91.5zM414 1331q-88 0 -129 -58.5t-41 -150.5q0 -213 166 -213q159 0 159 213q0 55 -13.5 99.5t-50 77t-91.5 32.5z" />
    <glyph glyph-name="guillemotright" unicode="&#xbb;" 
d="M582 551l-242 -420h-258l225 420l-225 420h258zM1038 551l-241 -420h-258l225 420l-225 420h258z" />
    <glyph glyph-name="onequarter" unicode="&#xbc;" horiz-adv-x="1708" 
d="M1106 326h237v350h-4zM932 162v174l368 528h256v-538h99v-164h-99v-162h-213v162h-411zM336 -45l854 1520h168l-854 -1520h-168zM41 1237l285 205h192v-864h-213v655l-158 -121z" />
    <glyph glyph-name="onehalf" unicode="&#xbd;" horiz-adv-x="1708" 
d="M274 -45l854 1520h168l-854 -1520h-168zM20 1235l285 207h193v-864h-213v655l-158 -123zM1022 0v168q32 11 96 61.5t125 114.5q68 73 112 140.5t44 109.5q0 51 -32 78.5t-93 27.5q-118 0 -215 -69l-15 178q127 68 277 68q141 0 228 -65t87 -200q0 -114 -125 -256
q-54 -60 -114.5 -107.5t-106.5 -68.5v-4h350v-176h-618z" />
    <glyph glyph-name="threequarters" unicode="&#xbe;" horiz-adv-x="1708" 
d="M1368 326v350h-4l-229 -350h233zM1581 162v-162h-213v162h-412v174l369 528h256v-538h98v-164h-98zM360 -45l854 1520h168l-854 -1520h-168zM70 1237l-11 168q140 49 265 49q54 0 107 -10.5t104 -33.5t82.5 -66t31.5 -101q0 -172 -170 -215v-4q86 -6 134.5 -61.5
t48.5 -135.5q0 -56 -23 -101.5t-61 -74.5t-87.5 -49t-100.5 -28.5t-103 -8.5q-126 0 -258 35l10 170q138 -41 233 -41q64 0 114 28t50 77q0 54 -47 77t-115 23q-74 0 -114 -6v172q18 1 57 -0.5t62 -1.5q61 0 109 25t48 73q0 94 -143 94q-131 0 -223 -53z" />
    <glyph glyph-name="questiondown" unicode="&#xbf;" horiz-adv-x="1024" 
d="M899 -104l23 -228q-158 -67 -406 -67q-74 0 -141 12.5t-127 40.5t-104 70t-69.5 104t-25.5 139q0 58 20.5 113t53 99t71.5 87t76.5 85.5t68 85t47 94.5t11.5 106h252q0 -91 -23 -167t-52 -121.5t-74 -94.5q-12 -13 -43 -46.5t-44 -49.5t-31.5 -44t-26 -55.5t-7.5 -58.5
q0 -50 21 -88t56.5 -58.5t75 -30t83.5 -9.5q161 0 315 82zM664 1055v-287h-287v287h287z" />
    <glyph glyph-name="Agrave" unicode="&#xc0;" horiz-adv-x="1478" 
d="M940 553l-207 590h-4l-207 -590h418zM18 0l557 1430h324l561 -1430h-317l-123 328h-580l-125 -328h-297zM737 1821l170 -299h-170l-280 299h280z" />
    <glyph glyph-name="Aacute" unicode="&#xc1;" horiz-adv-x="1478" 
d="M940 553l-207 590h-4l-207 -590h418zM18 0l557 1430h324l561 -1430h-317l-123 328h-580l-125 -328h-297zM571 1522l170 299h281l-281 -299h-170z" />
    <glyph glyph-name="Acircumflex" unicode="&#xc2;" horiz-adv-x="1478" 
d="M940 553l-207 590h-4l-207 -590h418zM18 0l557 1430h324l561 -1430h-317l-123 328h-580l-125 -328h-297zM641 1821h207l215 -299h-182l-140 176l-143 -176h-182z" />
    <glyph glyph-name="Atilde" unicode="&#xc3;" horiz-adv-x="1478" 
d="M940 553l-207 590h-4l-207 -590h418zM18 0l557 1430h324l561 -1430h-317l-123 328h-580l-125 -328h-297zM487 1559h-110q0 96 60.5 171.5t148.5 75.5q57 0 166 -41q13 -5 37 -15t37.5 -15.5t34.5 -10t40 -4.5q44 0 67 28.5t23 72.5h111q0 -107 -53.5 -177.5t-145.5 -70.5
q-78 0 -176 37q-99 39 -139 39q-49 0 -75 -28t-26 -62z" />
    <glyph glyph-name="Adieresis" unicode="&#xc4;" horiz-adv-x="1478" 
d="M940 553l-207 590h-4l-207 -590h418zM18 0l557 1430h324l561 -1430h-317l-123 328h-580l-125 -328h-297zM831 1808h238v-237h-238v237zM647 1571h-237v237h237v-237z" />
    <glyph glyph-name="Aring" unicode="&#xc5;" horiz-adv-x="1478" 
d="M940 553l-207 590h-4l-207 -590h418zM18 0l557 1430h324l561 -1430h-317l-123 328h-580l-125 -328h-297zM522 1696q0 89 65 154t154 65q90 0 153.5 -64.5t63.5 -154.5q0 -91 -63 -154t-154 -63q-90 0 -154.5 63.5t-64.5 153.5zM633 1696q0 -44 31.5 -75.5t76.5 -31.5
q44 0 75.5 31.5t31.5 75.5q0 46 -31 77t-76 31q-46 0 -77 -31t-31 -77z" />
    <glyph glyph-name="AE" unicode="&#xc6;" horiz-adv-x="1933" 
d="M1030 553l-47 664h-4l-354 -664h405zM18 0l783 1430h1022v-226h-555l28 -352h482v-225h-457l33 -402h477v-225h-756l-24 328h-549l-176 -328h-308z" />
    <glyph glyph-name="Ccedilla" unicode="&#xc7;" horiz-adv-x="1251" 
d="M1194 260l12 -240q-187 -45 -325 -45q-21 0 -29 2l-74 -86l4 -4q8 1 24.5 5t31 6t28.5 2q66 0 115 -37t49 -105q0 -57 -22.5 -99.5t-60.5 -66.5t-81.5 -35.5t-91.5 -11.5q-146 0 -237 43l41 111q6 -2 23.5 -7.5t28 -8.5t27 -7t32.5 -6t32 -2q45 0 76.5 17t31.5 55
q0 37 -25.5 55.5t-64.5 18.5q-31 0 -86 -19l-30 53l110 140q-145 16 -261.5 67t-200.5 137.5t-129.5 213t-45.5 284.5q0 364 209 564t576 200q173 0 323 -59l-20 -242q-136 76 -310 76q-217 0 -348 -147t-131 -371q0 -146 57 -261t168.5 -182t260.5 -67q86 0 174 16.5
t139 42.5z" />
    <glyph glyph-name="Egrave" unicode="&#xc8;" 
d="M166 0v1430h844v-226h-557v-352h510v-225h-510v-402h561v-225h-848zM567 1821l170 -299h-170l-280 299h280z" />
    <glyph glyph-name="Eacute" unicode="&#xc9;" 
d="M166 0v1430h844v-226h-557v-352h510v-225h-510v-402h561v-225h-848zM401 1522l170 299h281l-281 -299h-170z" />
    <glyph glyph-name="Ecircumflex" unicode="&#xca;" 
d="M166 0v1430h844v-226h-557v-352h510v-225h-510v-402h561v-225h-848zM471 1821h207l215 -299h-182l-140 176l-143 -176h-182z" />
    <glyph glyph-name="Edieresis" unicode="&#xcb;" 
d="M166 0v1430h844v-226h-557v-352h510v-225h-510v-402h561v-225h-848zM662 1808h237v-237h-237v237zM477 1571h-237v237h237v-237z" />
    <glyph glyph-name="Igrave" unicode="&#xcc;" horiz-adv-x="569" 
d="M141 0v1430h287v-1430h-287zM283 1821l170 -299h-170l-281 299h281z" />
    <glyph glyph-name="Iacute" unicode="&#xcd;" horiz-adv-x="569" 
d="M141 0v1430h287v-1430h-287zM117 1522l170 299h280l-280 -299h-170z" />
    <glyph glyph-name="Icircumflex" unicode="&#xce;" horiz-adv-x="569" 
d="M141 0v1430h287v-1430h-287zM186 1821h207l215 -299h-182l-139 176l-144 -176h-182z" />
    <glyph glyph-name="Idieresis" unicode="&#xcf;" horiz-adv-x="569" 
d="M141 0v1430h287v-1430h-287zM377 1808h237v-237h-237v237zM193 1571h-238v237h238v-237z" />
    <glyph glyph-name="Eth" unicode="&#xd0;" horiz-adv-x="1478" 
d="M166 0v688h-131v176h131v566h391q825 0 825 -715t-825 -715h-391zM453 688v-463h159q91 0 175 33.5t150.5 94.5t106 155t39.5 207t-39.5 207t-106 154.5t-150.5 94t-175 33.5h-159v-340h299v-176h-299z" />
    <glyph glyph-name="Ntilde" unicode="&#xd1;" horiz-adv-x="1478" 
d="M152 0v1430h352l545 -1070h4v1070h274v-1430h-350l-547 1069h-4v-1069h-274zM487 1559h-110q0 96 60.5 171.5t148.5 75.5q57 0 166 -41q13 -5 37 -15t37.5 -15.5t34.5 -10t40 -4.5q44 0 67 28.5t23 72.5h111q0 -107 -53.5 -177.5t-145.5 -70.5q-78 0 -176 37
q-99 39 -139 39q-49 0 -75 -28t-26 -62z" />
    <glyph glyph-name="Ograve" unicode="&#xd2;" horiz-adv-x="1593" 
d="M96 719q0 220 79.5 384.5t239 257.5t382.5 93q220 0 379.5 -94t240 -259t80.5 -382q0 -218 -79.5 -384.5t-239.5 -263t-381 -96.5q-225 0 -384.5 95.5t-238 261.5t-78.5 387zM395 719q0 -80 13.5 -153t44 -140.5t76 -116.5t114.5 -78.5t154 -29.5t154 29.5t114 78.5
t75.5 116.5t44 140.5t13.5 153q0 78 -14 150t-45.5 138t-77 115t-113.5 78t-151 29t-151 -29t-114 -78t-77.5 -115t-45.5 -138t-14 -150zM795 1821l170 -299h-170l-281 299h281z" />
    <glyph glyph-name="Oacute" unicode="&#xd3;" horiz-adv-x="1593" 
d="M96 719q0 220 79.5 384.5t239 257.5t382.5 93q220 0 379.5 -94t240 -259t80.5 -382q0 -218 -79.5 -384.5t-239.5 -263t-381 -96.5q-225 0 -384.5 95.5t-238 261.5t-78.5 387zM395 719q0 -80 13.5 -153t44 -140.5t76 -116.5t114.5 -78.5t154 -29.5t154 29.5t114 78.5
t75.5 116.5t44 140.5t13.5 153q0 78 -14 150t-45.5 138t-77 115t-113.5 78t-151 29t-151 -29t-114 -78t-77.5 -115t-45.5 -138t-14 -150zM629 1522l170 299h280l-280 -299h-170z" />
    <glyph glyph-name="Ocircumflex" unicode="&#xd4;" horiz-adv-x="1593" 
d="M96 719q0 220 79.5 384.5t239 257.5t382.5 93q220 0 379.5 -94t240 -259t80.5 -382q0 -218 -79.5 -384.5t-239.5 -263t-381 -96.5q-225 0 -384.5 95.5t-238 261.5t-78.5 387zM395 719q0 -80 13.5 -153t44 -140.5t76 -116.5t114.5 -78.5t154 -29.5t154 29.5t114 78.5
t75.5 116.5t44 140.5t13.5 153q0 78 -14 150t-45.5 138t-77 115t-113.5 78t-151 29t-151 -29t-114 -78t-77.5 -115t-45.5 -138t-14 -150zM698 1821h207l215 -299h-182l-139 176l-144 -176h-182z" />
    <glyph glyph-name="Otilde" unicode="&#xd5;" horiz-adv-x="1593" 
d="M96 719q0 220 79.5 384.5t239 257.5t382.5 93q220 0 379.5 -94t240 -259t80.5 -382q0 -218 -79.5 -384.5t-239.5 -263t-381 -96.5q-225 0 -384.5 95.5t-238 261.5t-78.5 387zM395 719q0 -80 13.5 -153t44 -140.5t76 -116.5t114.5 -78.5t154 -29.5t154 29.5t114 78.5
t75.5 116.5t44 140.5t13.5 153q0 78 -14 150t-45.5 138t-77 115t-113.5 78t-151 29t-151 -29t-114 -78t-77.5 -115t-45.5 -138t-14 -150zM545 1559h-111q0 96 60.5 171.5t148.5 75.5q57 0 166 -41q13 -5 37 -15t37.5 -15.5t34.5 -10t40 -4.5q44 0 67.5 28.5t23.5 72.5h110
q0 -107 -53 -177.5t-145 -70.5q-79 0 -177 37q-99 39 -139 39q-49 0 -74.5 -28t-25.5 -62z" />
    <glyph glyph-name="Odieresis" unicode="&#xd6;" horiz-adv-x="1593" 
d="M96 719q0 220 79.5 384.5t239 257.5t382.5 93q220 0 379.5 -94t240 -259t80.5 -382q0 -218 -79.5 -384.5t-239.5 -263t-381 -96.5q-225 0 -384.5 95.5t-238 261.5t-78.5 387zM395 719q0 -80 13.5 -153t44 -140.5t76 -116.5t114.5 -78.5t154 -29.5t154 29.5t114 78.5
t75.5 116.5t44 140.5t13.5 153q0 78 -14 150t-45.5 138t-77 115t-113.5 78t-151 29t-151 -29t-114 -78t-77.5 -115t-45.5 -138t-14 -150zM889 1808h237v-237h-237v237zM705 1571h-238v237h238v-237z" />
    <glyph glyph-name="multiply" unicode="&#xd7;" horiz-adv-x="1228" 
d="M467 518l-332 332l148 147l331 -331l332 331l148 -147l-334 -332l334 -332l-148 -147l-332 334l-331 -334l-148 147z" />
    <glyph glyph-name="Oslash" unicode="&#xd8;" horiz-adv-x="1593" 
d="M467 397l575 742q-100 90 -245 90q-83 0 -151 -29t-114 -78t-77.5 -115t-45.5 -138t-14 -150q0 -190 72 -322zM1118 1042l-577 -743q98 -98 256 -98q85 0 154 29.5t114 78.5t75.5 116.5t44 140.5t13.5 153q0 192 -80 323zM1313 1489l92 -76l-111 -143q99 -98 151 -239
t52 -312q0 -218 -79.5 -384.5t-239.5 -263t-381 -96.5q-250 0 -418 117l-117 -151l-92 73l121 156q-195 192 -195 549q0 220 79.5 384.5t239 257.5t382.5 93q237 0 405 -108z" />
    <glyph glyph-name="Ugrave" unicode="&#xd9;" horiz-adv-x="1478" 
d="M156 516v914h286v-826q0 -194 70 -298.5t227 -104.5t227 104.5t70 298.5v826h287v-914q0 -541 -584 -541q-583 0 -583 541zM737 1821l170 -299h-170l-280 299h280z" />
    <glyph glyph-name="Uacute" unicode="&#xda;" horiz-adv-x="1478" 
d="M156 516v914h286v-826q0 -194 70 -298.5t227 -104.5t227 104.5t70 298.5v826h287v-914q0 -541 -584 -541q-583 0 -583 541zM571 1522l170 299h281l-281 -299h-170z" />
    <glyph glyph-name="Ucircumflex" unicode="&#xdb;" horiz-adv-x="1478" 
d="M156 516v914h286v-826q0 -194 70 -298.5t227 -104.5t227 104.5t70 298.5v826h287v-914q0 -541 -584 -541q-583 0 -583 541zM641 1821h207l215 -299h-182l-140 176l-143 -176h-182z" />
    <glyph glyph-name="Udieresis" unicode="&#xdc;" horiz-adv-x="1478" 
d="M156 516v914h286v-826q0 -194 70 -298.5t227 -104.5t227 104.5t70 298.5v826h287v-914q0 -541 -584 -541q-583 0 -583 541zM831 1808h238v-237h-238v237zM647 1571h-237v237h237v-237z" />
    <glyph glyph-name="Yacute" unicode="&#xdd;" horiz-adv-x="1366" 
d="M545 0v565l-522 865h335l338 -601l344 601h303l-512 -865v-565h-286zM516 1522l170 299h281l-281 -299h-170z" />
    <glyph glyph-name="Thorn" unicode="&#xde;" 
d="M428 0h-287v1430h287v-238h76q99 0 182 -12t161.5 -42.5t133 -78.5t87 -125t32.5 -176q0 -98 -28 -175t-77 -129t-119.5 -85.5t-151 -48.5t-175.5 -15h-121v-305zM428 967v-437h100q57 0 103.5 10.5t86 33.5t61.5 66t22 103q0 117 -76 170.5t-197 53.5h-100z" />
    <glyph glyph-name="germandbls" unicode="&#xdf;" horiz-adv-x="1251" 
d="M422 0h-275v1034q0 240 129.5 383.5t374.5 143.5q87 0 168.5 -24.5t148.5 -70t107.5 -119t40.5 -163.5q0 -140 -69.5 -234t-202.5 -129v-4q153 -20 249.5 -126t96.5 -251q0 -207 -134 -329.5t-345 -122.5q-27 0 -55 2.5t-44 5t-44.5 8t-35.5 6.5l9 213q64 -22 143 -22
q27 0 53 5t57.5 22.5t54.5 45.5t38.5 78t15.5 117q0 231 -321 231v213q118 0 182.5 55t64.5 169q0 92 -46.5 151.5t-135.5 59.5q-58 0 -102.5 -25.5t-70.5 -68t-39 -93t-13 -104.5v-1057z" />
    <glyph glyph-name="agrave" unicode="&#xe0;" 
d="M197 764l-9 235q79 37 179 58.5t188 21.5q241 0 348 -105t107 -339v-135q0 -108 4 -264q3 -109 12 -236h-242q-4 20 -12 158h-4q-46 -85 -137 -134t-189 -49q-95 0 -177.5 35.5t-136.5 109t-54 169.5q0 213 180 301q124 61 354 61h152q0 125 -56.5 176.5t-181.5 51.5
q-174 0 -325 -115zM336 305q0 -64 48 -96.5t126 -32.5q121 0 192 94q58 76 58 217h-119q-305 0 -305 -182zM532 1497l170 -299h-170l-280 299h280z" />
    <glyph glyph-name="aacute" unicode="&#xe1;" 
d="M197 764l-9 235q79 37 179 58.5t188 21.5q241 0 348 -105t107 -339v-135q0 -108 4 -264q3 -109 12 -236h-242q-4 20 -12 158h-4q-46 -85 -137 -134t-189 -49q-95 0 -177.5 35.5t-136.5 109t-54 169.5q0 213 180 301q124 61 354 61h152q0 125 -56.5 176.5t-181.5 51.5
q-174 0 -325 -115zM336 305q0 -64 48 -96.5t126 -32.5q121 0 192 94q58 76 58 217h-119q-305 0 -305 -182zM418 1198l170 299h280l-280 -299h-170z" />
    <glyph glyph-name="acircumflex" unicode="&#xe2;" 
d="M197 764l-9 235q79 37 179 58.5t188 21.5q241 0 348 -105t107 -339v-135q0 -108 4 -264q3 -109 12 -236h-242q-4 20 -12 158h-4q-46 -85 -137 -134t-189 -49q-95 0 -177.5 35.5t-136.5 109t-54 169.5q0 213 180 301q124 61 354 61h152q0 125 -56.5 176.5t-181.5 51.5
q-174 0 -325 -115zM336 305q0 -64 48 -96.5t126 -32.5q121 0 192 94q58 76 58 217h-119q-305 0 -305 -182zM471 1497h207l215 -299h-182l-140 176l-143 -176h-182z" />
    <glyph glyph-name="atilde" unicode="&#xe3;" 
d="M197 764l-9 235q79 37 179 58.5t188 21.5q241 0 348 -105t107 -339v-135q0 -108 4 -264q3 -109 12 -236h-242q-4 20 -12 158h-4q-46 -85 -137 -134t-189 -49q-95 0 -177.5 35.5t-136.5 109t-54 169.5q0 213 180 301q124 61 354 61h152q0 125 -56.5 176.5t-181.5 51.5
q-174 0 -325 -115zM336 305q0 -64 48 -96.5t126 -32.5q121 0 192 94q58 76 58 217h-119q-305 0 -305 -182zM317 1235h-110q0 96 60.5 172t148.5 76q57 0 166 -41q13 -5 37 -15t37.5 -15.5t34.5 -10t40 -4.5q44 0 67 28t23 72h111q0 -107 -53.5 -177.5t-145.5 -70.5
q-78 0 -176 37q-99 39 -139 39q-49 0 -75 -28t-26 -62z" />
    <glyph glyph-name="adieresis" unicode="&#xe4;" 
d="M197 764l-9 235q79 37 179 58.5t188 21.5q241 0 348 -105t107 -339v-135q0 -108 4 -264q3 -109 12 -236h-242q-4 20 -12 158h-4q-46 -85 -137 -134t-189 -49q-95 0 -177.5 35.5t-136.5 109t-54 169.5q0 213 180 301q124 61 354 61h152q0 125 -56.5 176.5t-181.5 51.5
q-174 0 -325 -115zM336 305q0 -64 48 -96.5t126 -32.5q121 0 192 94q58 76 58 217h-119q-305 0 -305 -182zM662 1485h237v-238h-237v238zM477 1247h-237v238h237v-238z" />
    <glyph glyph-name="aring" unicode="&#xe5;" 
d="M197 764l-9 235q79 37 179 58.5t188 21.5q241 0 348 -105t107 -339v-135q0 -108 4 -264q3 -109 12 -236h-242q-4 20 -12 158h-4q-46 -85 -137 -134t-189 -49q-95 0 -177.5 35.5t-136.5 109t-54 169.5q0 213 180 301q124 61 354 61h152q0 125 -56.5 176.5t-181.5 51.5
q-174 0 -325 -115zM336 305q0 -64 48 -96.5t126 -32.5q121 0 192 94q58 76 58 217h-119q-305 0 -305 -182zM352 1403q0 89 65 154t154 65q90 0 153.5 -64.5t63.5 -154.5q0 -91 -63 -154t-154 -63q-90 0 -154.5 63.5t-64.5 153.5zM463 1403q0 -45 31.5 -76t76.5 -31
q44 0 75.5 31.5t31.5 75.5q0 45 -31 76.5t-76 31.5q-46 0 -77 -31t-31 -77z" />
    <glyph glyph-name="ae" unicode="&#xe6;" horiz-adv-x="1820" 
d="M1022 631h463q0 106 -54 177t-161 71q-117 0 -182.5 -70.5t-65.5 -177.5zM1675 283v-224q-153 -84 -362 -84q-309 0 -443 191q-58 -95 -166.5 -144.5t-226.5 -46.5q-62 0 -119 10.5t-109.5 34.5t-90.5 59.5t-61 89t-23 120.5q0 84 32 149t83.5 104.5t122.5 64.5
t141.5 34.5t148.5 9.5h158q0 117 -55.5 173.5t-188.5 56.5q-172 0 -326 -117l-8 235q80 37 180.5 58.5t194.5 21.5q125 0 205 -26t153 -107q127 133 361 133q109 0 192.5 -35.5t135.5 -94t85 -143t45.5 -172.5t12.5 -192h-725q0 -125 86 -195.5t217 -70.5q159 0 350 107z
M336 289q0 -48 42.5 -80.5t113.5 -32.5q145 0 206.5 75t61.5 236h-119q-55 0 -103.5 -8.5t-96.5 -28.5t-76.5 -61.5t-28.5 -99.5z" />
    <glyph glyph-name="ccedilla" unicode="&#xe7;" horiz-adv-x="909" 
d="M850 1044l-25 -217q-83 39 -186 39q-127 0 -203 -92t-76 -242q0 -153 73 -248.5t212 -95.5q93 0 211 50l12 -228q-103 -30 -227 -33l-76 -86l4 -4q8 1 24.5 5t31 6t28.5 2q66 0 115 -37t49 -105q0 -57 -22.5 -99.5t-60.5 -66.5t-81.5 -35.5t-91.5 -11.5q-146 0 -237 43
l41 111q6 -2 23.5 -7.5t28 -8.5t27 -7t32.5 -6t32 -2q45 0 76.5 17t31.5 55q0 37 -25.5 55.5t-64.5 18.5q-31 0 -86 -19l-30 53l106 134q-215 23 -328.5 171.5t-113.5 378.5q0 115 34 214t97 173.5t160.5 117t218.5 42.5q150 0 266 -35z" />
    <glyph glyph-name="egrave" unicode="&#xe8;" 
d="M336 631h467q-7 110 -61 179t-162 69q-111 0 -173 -68t-71 -180zM987 283v-224q-153 -84 -362 -84q-261 0 -406 144t-145 403q0 116 31 216t90 176.5t153.5 120.5t214.5 44q115 0 202.5 -31.5t143.5 -86t91.5 -136.5t50 -174.5t14.5 -208.5h-729q9 -126 90.5 -196
t210.5 -70q159 0 350 107zM532 1497l170 -299h-170l-280 299h280z" />
    <glyph glyph-name="eacute" unicode="&#xe9;" 
d="M336 631h467q-7 110 -61 179t-162 69q-111 0 -173 -68t-71 -180zM987 283v-224q-153 -84 -362 -84q-261 0 -406 144t-145 403q0 116 31 216t90 176.5t153.5 120.5t214.5 44q115 0 202.5 -31.5t143.5 -86t91.5 -136.5t50 -174.5t14.5 -208.5h-729q9 -126 90.5 -196
t210.5 -70q159 0 350 107zM418 1198l170 299h280l-280 -299h-170z" />
    <glyph glyph-name="ecircumflex" unicode="&#xea;" 
d="M336 631h467q-7 110 -61 179t-162 69q-111 0 -173 -68t-71 -180zM987 283v-224q-153 -84 -362 -84q-261 0 -406 144t-145 403q0 116 31 216t90 176.5t153.5 120.5t214.5 44q115 0 202.5 -31.5t143.5 -86t91.5 -136.5t50 -174.5t14.5 -208.5h-729q9 -126 90.5 -196
t210.5 -70q159 0 350 107zM471 1497h207l215 -299h-182l-140 176l-143 -176h-182z" />
    <glyph glyph-name="edieresis" unicode="&#xeb;" 
d="M336 631h467q-7 110 -61 179t-162 69q-111 0 -173 -68t-71 -180zM987 283v-224q-153 -84 -362 -84q-261 0 -406 144t-145 403q0 116 31 216t90 176.5t153.5 120.5t214.5 44q115 0 202.5 -31.5t143.5 -86t91.5 -136.5t50 -174.5t14.5 -208.5h-729q9 -126 90.5 -196
t210.5 -70q159 0 350 107zM662 1485h237v-238h-237v238zM477 1247h-237v238h237v-238z" />
    <glyph glyph-name="igrave" unicode="&#xec;" horiz-adv-x="569" 
d="M422 0h-275v1055h275v-1055zM248 1497l170 -299h-170l-281 299h281z" />
    <glyph glyph-name="iacute" unicode="&#xed;" horiz-adv-x="569" 
d="M422 0h-275v1055h275v-1055zM133 1198l170 299h281l-281 -299h-170z" />
    <glyph glyph-name="icircumflex" unicode="&#xee;" horiz-adv-x="569" 
d="M422 0h-275v1055h275v-1055zM186 1497h207l215 -299h-182l-139 176l-144 -176h-182z" />
    <glyph glyph-name="idieresis" unicode="&#xef;" horiz-adv-x="569" 
d="M422 0h-275v1055h275v-1055zM377 1485h237v-238h-237v238zM193 1247h-238v238h238v-238z" />
    <glyph glyph-name="eth" unicode="&#xf0;" horiz-adv-x="1251" 
d="M629 842q-65 0 -118 -30t-85 -78t-49 -105t-17 -115q0 -60 14.5 -115t44.5 -103.5t83.5 -78t124.5 -29.5q54 0 98 18t73.5 49t49 73t28.5 88.5t9 97.5q0 56 -15 112t-44.5 105.5t-80.5 80t-116 30.5zM297 1217l170 110q-102 64 -203 98l125 140q136 -50 260 -121l189 121
l104 -97l-170 -108q188 -144 293.5 -342t105.5 -440q0 -291 -142 -447t-404 -156q-169 0 -296 73.5t-191 196t-64 275.5q-2 106 30 203t92 170.5t152.5 117.5t202.5 44q151 0 252 -66h4q-65 138 -217 254l-189 -123z" />
    <glyph glyph-name="ntilde" unicode="&#xf1;" horiz-adv-x="1251" 
d="M141 0v1055h260v-144h5q119 168 346 168q180 0 269 -112.5t89 -300.5v-666h-274v563q0 42 -1 68t-6 67t-16.5 66t-30.5 51t-51 38.5t-74 12.5q-70 0 -120.5 -34.5t-75 -91t-35 -111.5t-10.5 -113v-516h-275zM375 1235h-111q0 96 60.5 172t148.5 76q57 0 166 -41
q13 -5 37 -15t37.5 -15.5t34.5 -10t40 -4.5q44 0 67.5 28t23.5 72h110q0 -107 -53 -177.5t-145 -70.5q-79 0 -177 37q-99 39 -139 39q-49 0 -74.5 -28t-25.5 -62z" />
    <glyph glyph-name="ograve" unicode="&#xf2;" horiz-adv-x="1251" 
d="M74 520q0 255 156 407t395 152q240 0 396.5 -152t156.5 -407q0 -114 -37.5 -213t-107 -173t-175 -116.5t-233.5 -42.5q-169 0 -296 73.5t-191 196t-64 275.5zM360 553q0 -56 7.5 -105.5t26 -98t47.5 -83.5t76.5 -56.5t107.5 -21.5q76 0 130 31.5t82.5 86t41 115
t12.5 132.5q0 84 -28 153.5t-90 114.5t-148 45q-126 0 -195.5 -92.5t-69.5 -220.5zM590 1497l170 -299h-170l-281 299h281z" />
    <glyph glyph-name="oacute" unicode="&#xf3;" horiz-adv-x="1251" 
d="M74 520q0 255 156 407t395 152q240 0 396.5 -152t156.5 -407q0 -114 -37.5 -213t-107 -173t-175 -116.5t-233.5 -42.5q-169 0 -296 73.5t-191 196t-64 275.5zM360 553q0 -56 7.5 -105.5t26 -98t47.5 -83.5t76.5 -56.5t107.5 -21.5q76 0 130 31.5t82.5 86t41 115
t12.5 132.5q0 84 -28 153.5t-90 114.5t-148 45q-126 0 -195.5 -92.5t-69.5 -220.5zM475 1198l170 299h281l-281 -299h-170z" />
    <glyph glyph-name="ocircumflex" unicode="&#xf4;" horiz-adv-x="1251" 
d="M74 520q0 255 156 407t395 152q240 0 396.5 -152t156.5 -407q0 -114 -37.5 -213t-107 -173t-175 -116.5t-233.5 -42.5q-169 0 -296 73.5t-191 196t-64 275.5zM360 553q0 -56 7.5 -105.5t26 -98t47.5 -83.5t76.5 -56.5t107.5 -21.5q76 0 130 31.5t82.5 86t41 115
t12.5 132.5q0 84 -28 153.5t-90 114.5t-148 45q-126 0 -195.5 -92.5t-69.5 -220.5zM528 1497h207l215 -299h-182l-139 176l-144 -176h-182z" />
    <glyph glyph-name="otilde" unicode="&#xf5;" horiz-adv-x="1251" 
d="M74 520q0 255 156 407t395 152q240 0 396.5 -152t156.5 -407q0 -114 -37.5 -213t-107 -173t-175 -116.5t-233.5 -42.5q-169 0 -296 73.5t-191 196t-64 275.5zM360 553q0 -56 7.5 -105.5t26 -98t47.5 -83.5t76.5 -56.5t107.5 -21.5q76 0 130 31.5t82.5 86t41 115
t12.5 132.5q0 84 -28 153.5t-90 114.5t-148 45q-126 0 -195.5 -92.5t-69.5 -220.5zM375 1235h-111q0 96 60.5 172t148.5 76q57 0 166 -41q13 -5 37 -15t37.5 -15.5t34.5 -10t40 -4.5q44 0 67.5 28t23.5 72h110q0 -107 -53 -177.5t-145 -70.5q-79 0 -177 37q-99 39 -139 39
q-49 0 -74.5 -28t-25.5 -62z" />
    <glyph glyph-name="odieresis" unicode="&#xf6;" horiz-adv-x="1251" 
d="M74 520q0 255 156 407t395 152q240 0 396.5 -152t156.5 -407q0 -114 -37.5 -213t-107 -173t-175 -116.5t-233.5 -42.5q-169 0 -296 73.5t-191 196t-64 275.5zM360 553q0 -56 7.5 -105.5t26 -98t47.5 -83.5t76.5 -56.5t107.5 -21.5q76 0 130 31.5t82.5 86t41 115
t12.5 132.5q0 84 -28 153.5t-90 114.5t-148 45q-126 0 -195.5 -92.5t-69.5 -220.5zM719 1485h237v-238h-237v238zM535 1247h-238v238h238v-238z" />
    <glyph glyph-name="divide" unicode="&#xf7;" horiz-adv-x="1228" 
d="M1135 412h-1041v213h1041v-213zM614 1083q70 0 114 -44t44 -113t-44 -113.5t-114 -44.5t-113.5 44.5t-43.5 113.5t43.5 113t113.5 44zM614 -47q-70 0 -113.5 44.5t-43.5 113.5t43.5 113t113.5 44t114 -44t44 -113t-44 -113.5t-114 -44.5z" />
    <glyph glyph-name="oslash" unicode="&#xf8;" horiz-adv-x="1251" 
d="M397 344l389 467q-65 55 -161 55q-126 0 -195.5 -92.5t-69.5 -220.5q0 -125 37 -209zM854 725l-395 -475q65 -62 166 -62q76 0 130 31.5t82.5 86t41 115t12.5 132.5q0 97 -37 172zM1051 1126l82 -67l-111 -133q156 -153 156 -406q0 -114 -37.5 -213t-107 -173
t-175 -116.5t-233.5 -42.5q-181 0 -322 88l-113 -135l-84 68l115 137q-147 147 -147 387q0 255 156 407t395 152q177 0 315 -86z" />
    <glyph glyph-name="ugrave" unicode="&#xf9;" horiz-adv-x="1251" 
d="M1110 1055v-1055h-260v143h-4q-138 -168 -346 -168q-180 0 -269.5 113t-89.5 301v666h275v-563q0 -36 0.5 -58t4 -58t10 -58.5t19.5 -50t31.5 -42.5t47 -26t65.5 -11q57 0 101.5 24t70 60.5t42 85t22.5 92.5t6 89v516h274zM590 1497l170 -299h-170l-281 299h281z" />
    <glyph glyph-name="uacute" unicode="&#xfa;" horiz-adv-x="1251" 
d="M1110 1055v-1055h-260v143h-4q-138 -168 -346 -168q-180 0 -269.5 113t-89.5 301v666h275v-563q0 -36 0.5 -58t4 -58t10 -58.5t19.5 -50t31.5 -42.5t47 -26t65.5 -11q57 0 101.5 24t70 60.5t42 85t22.5 92.5t6 89v516h274zM475 1198l170 299h281l-281 -299h-170z" />
    <glyph glyph-name="ucircumflex" unicode="&#xfb;" horiz-adv-x="1251" 
d="M1110 1055v-1055h-260v143h-4q-138 -168 -346 -168q-180 0 -269.5 113t-89.5 301v666h275v-563q0 -36 0.5 -58t4 -58t10 -58.5t19.5 -50t31.5 -42.5t47 -26t65.5 -11q57 0 101.5 24t70 60.5t42 85t22.5 92.5t6 89v516h274zM528 1497h207l215 -299h-182l-139 176
l-144 -176h-182z" />
    <glyph glyph-name="udieresis" unicode="&#xfc;" horiz-adv-x="1251" 
d="M1110 1055v-1055h-260v143h-4q-138 -168 -346 -168q-180 0 -269.5 113t-89.5 301v666h275v-563q0 -36 0.5 -58t4 -58t10 -58.5t19.5 -50t31.5 -42.5t47 -26t65.5 -11q57 0 101.5 24t70 60.5t42 85t22.5 92.5t6 89v516h274zM719 1485h237v-238h-237v238zM535 1247h-238
v238h238v-238z" />
    <glyph glyph-name="yacute" unicode="&#xfd;" 
d="M326 1055l254 -770h4l254 770h278l-395 -1047q-66 -174 -84 -212q-71 -155 -175 -210q-75 -41 -179 -41q-93 0 -195 29l18 203q55 -19 142 -19q82 0 130 51.5t48 137.5l-403 1108h303zM418 1198l170 299h280l-280 -299h-170z" />
    <glyph glyph-name="thorn" unicode="&#xfe;" horiz-adv-x="1251" 
d="M141 -430v1966h275v-618h4q42 71 121.5 116t193.5 45q95 0 170.5 -29.5t126 -80t84 -121t48 -149.5t14.5 -169q0 -113 -24.5 -209.5t-75 -175.5t-138.5 -124.5t-205 -45.5q-202 0 -315 144h-4v-549h-275zM664 866q-63 0 -112 -31.5t-77.5 -82t-42.5 -107.5t-14 -115
q0 -47 7.5 -93t25.5 -92t44.5 -80t69 -55.5t94.5 -21.5q64 0 111.5 32t72.5 85t36.5 109.5t11.5 115.5q0 58 -11 113t-35 107t-71 84t-110 32z" />
    <glyph glyph-name="ydieresis" unicode="&#xff;" 
d="M326 1055l254 -770h4l254 770h278l-395 -1047q-66 -174 -84 -212q-71 -155 -175 -210q-75 -41 -179 -41q-93 0 -195 29l18 203q55 -19 142 -19q82 0 130 51.5t48 137.5l-403 1108h303zM662 1485h237v-238h-237v238zM477 1247h-237v238h237v-238z" />
    <glyph glyph-name="dotlessi" unicode="&#x131;" horiz-adv-x="569" 
d="M422 0h-275v1055h275v-1055z" />
    <glyph glyph-name="Lslash" unicode="&#x141;" horiz-adv-x="1024" 
d="M166 0v498l-150 -90v188l150 90v744h287v-574l344 205v-189l-344 -204v-443h555v-225h-842z" />
    <glyph glyph-name="lslash" unicode="&#x142;" horiz-adv-x="569" 
d="M147 0v600l-147 -88v188l147 88v748h275v-584l147 88v-188l-147 -88v-764h-275z" />
    <glyph glyph-name="OE" unicode="&#x152;" horiz-adv-x="1933" 
d="M1004 225v979q-93 13 -152 13q-214 0 -335.5 -138.5t-121.5 -371.5q0 -142 51.5 -252t158 -175.5t255.5 -66.5q62 0 144 12zM1823 1430v-226h-533v-352h488v-225h-488v-402h541v-225h-543q-115 0 -229 -6q-228 -6 -230 -6q-733 0 -733 719q0 182 54.5 322t155.5 230.5
t242.5 136.5t317.5 46q106 0 211 -6q210 -6 211 -6h535z" />
    <glyph glyph-name="oe" unicode="&#x153;" horiz-adv-x="1933" 
d="M360 526q0 -68 13.5 -127t43 -111t83 -82t125.5 -30q73 0 127.5 28.5t85 79t45 110t14.5 128.5q0 70 -14 130.5t-44.5 113t-85 83t-128.5 30.5q-67 0 -120 -32.5t-83.5 -85.5t-46 -113t-15.5 -122zM1860 442h-689q3 -130 83 -198t210 -68q172 0 314 105l8 -224
q-22 -13 -30 -17t-43.5 -19.5t-66 -23t-82.5 -15t-108 -7.5q-148 0 -256.5 39t-171.5 136q-124 -175 -403 -175q-169 0 -296 73.5t-191 196t-64 275.5q0 255 156 407t395 152q124 0 226 -45.5t167 -134.5q60 88 158.5 134t209.5 46t196 -35t137 -93t84.5 -142t44.5 -172.5
t12 -194.5zM1171 631h426q-3 109 -53 178.5t-155 69.5q-100 0 -159 -73.5t-59 -174.5z" />
    <glyph glyph-name="Scaron" unicode="&#x160;" 
d="M961 1403l-27 -236q-143 62 -291 62q-40 0 -77 -9.5t-71.5 -31t-55.5 -62t-21 -96.5q0 -39 21.5 -70.5t57.5 -53t83 -41t99 -39.5t104 -43t99 -56.5t83 -75.5t57.5 -104t21.5 -139q0 -91 -28 -164.5t-77 -123t-117.5 -83t-146.5 -48t-167 -14.5q-26 0 -48 0.5t-46 3
t-38 3t-40 5.5t-34.5 6t-38.5 8t-35.5 8.5t-42.5 10.5t-44 11l27 258q163 -88 324 -88q59 0 114.5 18t97 61.5t41.5 104.5q0 43 -21.5 77.5t-57.5 58t-83 44t-99 41t-104 43.5t-99 55.5t-83 74t-57.5 102.5t-21.5 137q0 115 42 202t114 136.5t158 73.5t185 24q191 0 343 -51
zM678 1522h-207l-225 299h182l143 -176l140 176h182z" />
    <glyph glyph-name="scaron" unicode="&#x161;" horiz-adv-x="909" 
d="M786 1040l-18 -206q-130 45 -246 45q-41 0 -75.5 -10t-60.5 -37.5t-26 -69.5q0 -34 26.5 -57t68.5 -38t93 -29.5t102 -37.5t93 -55.5t68.5 -90.5t26.5 -135q0 -89 -37.5 -157t-101 -108t-140.5 -59.5t-164 -19.5q-144 0 -311 45l16 226q140 -70 271 -70q29 0 58 6
t57.5 19.5t46.5 40.5t18 63q0 42 -26.5 69.5t-68.5 43.5t-93 29.5t-101.5 34t-92.5 51t-68.5 86.5t-26.5 133q0 82 34 146.5t92.5 103t131 58t155.5 19.5q27 0 51.5 -1t50.5 -4t41.5 -4.5t43.5 -7t36 -7t40.5 -8t35.5 -7.5zM563 1198h-207l-225 299h182l144 -176l139 176
h182z" />
    <glyph glyph-name="Ydieresis" unicode="&#x178;" horiz-adv-x="1366" 
d="M545 0v565l-522 865h335l338 -601l344 601h303l-512 -865v-565h-286zM776 1808h238v-237h-238v237zM592 1571h-238v237h238v-237z" />
    <glyph glyph-name="Zcaron" unicode="&#x17d;" 
d="M74 0v233l671 971h-645v226h951v-234l-678 -971h692v-225h-991zM678 1522h-207l-225 299h182l143 -176l140 176h182z" />
    <glyph glyph-name="zcaron" unicode="&#x17e;" horiz-adv-x="1024" 
d="M96 842v213h836v-226l-524 -616h542v-213h-876v223l534 619h-512zM621 1198h-207l-226 299h183l143 -176l139 176h183z" />
    <glyph glyph-name="florin" unicode="&#x192;" 
d="M254 831h233l64 287q38 175 128 255.5t269 80.5q90 0 172 -18l-37 -217q-8 2 -24.5 6.5l-27.5 7.5t-29 5.5t-37 2.5q-64 0 -95.5 -43t-48.5 -125l-51 -242h248l-27 -163h-254l-125 -674q-7 -41 -13 -69.5t-21.5 -79.5t-32.5 -87t-47.5 -79t-66.5 -70t-88 -45.5
t-114 -18.5q-142 0 -213 21l41 203q48 -11 107 -11q32 0 57.5 14t39 27.5t25.5 46.5t14.5 44t8.5 46q1 6 2 9l144 723h-232z" />
    <glyph glyph-name="circumflex" unicode="&#x2c6;" horiz-adv-x="569" 
d="M186 1497h207l215 -299h-182l-139 176l-144 -176h-182z" />
    <glyph glyph-name="caron" unicode="&#x2c7;" horiz-adv-x="569" 
d="M393 1198h-207l-225 299h182l144 -176l139 176h182z" />
    <glyph glyph-name="uni02C9" unicode="&#x2c9;" horiz-adv-x="569" 
d="M580 1266h-590v164h590v-164z" />
    <glyph glyph-name="breve" unicode="&#x2d8;" horiz-adv-x="569" 
d="M-49 1495h127q17 -78 70.5 -121t134.5 -43t135.5 43t73.5 121h126q-9 -138 -103 -224.5t-232 -86.5t-232 87t-100 224z" />
    <glyph glyph-name="dotaccent" unicode="&#x2d9;" horiz-adv-x="569" 
d="M403 1247h-237v238h237v-238z" />
    <glyph glyph-name="ring" unicode="&#x2da;" horiz-adv-x="569" 
d="M68 1403q0 89 65 154t154 65q90 0 153.5 -64.5t63.5 -154.5q0 -91 -63 -154t-154 -63q-90 0 -154.5 63.5t-64.5 153.5zM178 1403q0 -44 31.5 -75.5t77.5 -31.5q44 0 75 31.5t31 75.5q0 46 -31 77t-75 31q-46 0 -77.5 -31t-31.5 -77z" />
    <glyph glyph-name="ogonek" unicode="&#x2db;" horiz-adv-x="569" 
d="M371 0h100q-76 -58 -123 -118.5t-47 -133.5q0 -92 84 -92q30 0 62 20.5t53 47.5l82 -17q-40 -85 -97.5 -123.5t-158.5 -38.5q-92 0 -146.5 47.5t-54.5 137.5q0 46 23 88.5t65.5 77.5t76 56.5t81.5 47.5z" />
    <glyph glyph-name="tilde" unicode="&#x2dc;" horiz-adv-x="569" 
d="M33 1235h-111q0 96 60.5 172t148.5 76q57 0 166 -41q13 -5 37 -15t37.5 -15.5t34.5 -10t40 -4.5q44 0 67.5 28t23.5 72h110q0 -107 -53 -177.5t-145 -70.5q-79 0 -177 37q-99 39 -139 39q-49 0 -74.5 -28t-25.5 -62z" />
    <glyph glyph-name="hungarumlaut" unicode="&#x2dd;" horiz-adv-x="569" 
d="M-143 1196l170 299h280l-280 -299h-170zM260 1198l170 299h281l-281 -299h-170z" />
    <glyph glyph-name="uni03A9" unicode="&#x3a9;" horiz-adv-x="1447" 
d="M360 199v6q-108 99 -179.5 248.5t-71.5 332.5q0 182 77 332.5t220 240t323 89.5q141 0 258.5 -57.5t192 -151t115 -207.5t40.5 -233q0 -187 -74.5 -342t-183.5 -252v-6h285v-199h-531v145q110 72 183 224t73 379q0 97 -23.5 185t-67.5 157.5t-113.5 111t-155.5 41.5
q-167 0 -269 -142.5t-102 -363.5q0 -211 74 -368.5t182 -223.5v-145h-532v199h280z" />
    <glyph glyph-name="uni03BC" unicode="&#x3bc;" horiz-adv-x="1251" 
d="M141 -430v1485h275v-563q0 -36 0.5 -58t4 -58t10 -58.5t19.5 -50t31.5 -42.5t47 -26t65.5 -11q57 0 101.5 24t70 60.5t42 85t22.5 92.5t6 89v516h274v-1055h-260v143h-4q-26 -63 -90.5 -115.5t-137.5 -52.5q-64 0 -111 13t-87 57h-4v-475h-275z" />
    <glyph glyph-name="pi" unicode="&#x3c0;" horiz-adv-x="1218" 
d="M1169 862h-147v-559q0 -185 27 -303h-236q-35 57 -35 291v571h-295q-9 -195 -46 -456t-87 -406h-237q51 171 88.5 426.5t42.5 435.5q-137 0 -205 -22l-29 164q90 65 328 65h850z" />
    <glyph glyph-name="uni2010" unicode="&#x2010;" horiz-adv-x="681" 
d="M610 438h-538v226h538v-226z" />
    <glyph glyph-name="endash" unicode="&#x2013;" horiz-adv-x="1024" 
d="M0 457v188h1024v-188h-1024z" />
    <glyph glyph-name="emdash" unicode="&#x2014;" horiz-adv-x="2048" 
d="M0 457v188h2048v-188h-2048z" />
    <glyph glyph-name="quoteleft" unicode="&#x2018;" horiz-adv-x="569" 
d="M70 918l186 512h244l-129 -512h-301z" />
    <glyph glyph-name="quoteright" unicode="&#x2019;" horiz-adv-x="569" 
d="M70 918l131 512h299l-189 -512h-241z" />
    <glyph glyph-name="quotesinglbase" unicode="&#x201a;" horiz-adv-x="569" 
d="M70 -225l131 512h299l-189 -512h-241z" />
    <glyph glyph-name="quotedblleft" unicode="&#x201c;" horiz-adv-x="985" 
d="M70 918l186 512h244l-129 -512h-301zM485 918l187 512h243l-129 -512h-301z" />
    <glyph glyph-name="quotedblright" unicode="&#x201d;" horiz-adv-x="985" 
d="M70 918l131 512h299l-189 -512h-241zM485 918l131 512h299l-188 -512h-242z" />
    <glyph glyph-name="quotedblbase" unicode="&#x201e;" horiz-adv-x="985" 
d="M485 -225l131 512h299l-188 -512h-242zM70 -225l131 512h299l-189 -512h-241z" />
    <glyph glyph-name="dagger" unicode="&#x2020;" 
d="M121 891v213h317v326h262v-326h318v-213h-318v-891h-262v891h-317z" />
    <glyph glyph-name="daggerdbl" unicode="&#x2021;" 
d="M121 936v201h317v293h262v-293h318v-201h-318v-434h318v-201h-318v-301h-262v301h-317v201h317v434h-317z" />
    <glyph glyph-name="bullet" unicode="&#x2022;" horiz-adv-x="1024" 
d="M156 715q0 148 104 252t252 104t253 -104t105 -252t-105 -253.5t-253 -105.5q-147 0 -251.5 105.5t-104.5 253.5z" />
    <glyph glyph-name="ellipsis" unicode="&#x2026;" horiz-adv-x="2048" 
d="M485 0h-286v287h286v-287zM1167 0h-286v287h286v-287zM1849 0h-286v287h286v-287z" />
    <glyph glyph-name="perthousand" unicode="&#x2030;" horiz-adv-x="2048" 
d="M309 893q24 0 42 7.5t28.5 24t17 32t9.5 44t3.5 47t0.5 52.5q0 28 -0.5 44t-2.5 41t-5.5 39.5t-11 32.5t-18 27.5t-26.5 16t-37 6.5q-25 0 -43 -7.5t-29 -24.5t-17.5 -32.5t-9 -44.5t-3 -46.5t-0.5 -51.5q0 -30 0.5 -45t2 -41t5.5 -40t11 -32t18 -27t27.5 -15.5
t37.5 -6.5zM309 745q-291 0 -291 361q0 79 14 139.5t46.5 109t90.5 74t140 25.5q157 0 223 -92t66 -256q0 -361 -289 -361zM1055 123q21 0 37 6.5t26.5 15.5t18 27t11 32t5 40t2 41t0.5 45q0 34 -0.5 51.5t-3 46.5t-9 44.5t-17 32.5t-28.5 24.5t-42 7.5q-25 0 -43 -7.5
t-29 -24.5t-17.5 -32.5t-9.5 -44t-3.5 -47t-0.5 -51.5q0 -34 0.5 -52.5t3.5 -47t9.5 -44t17.5 -32t29 -24t43 -7.5zM1055 -25q-291 0 -291 361q0 79 14 139.5t46.5 109t90.5 74t140 25.5q81 0 138.5 -25.5t89.5 -74t46 -109t14 -139.5q0 -361 -288 -361zM1743 -25
q-291 0 -291 361q0 79 14 139.5t46.5 109t90.5 74t140 25.5q157 0 223 -92t66 -256q0 -361 -289 -361zM1743 123q21 0 37 6.5t26.5 15.5t18 27t11 32t5 40t2 41t0.5 45q0 34 -0.5 51.5t-3 46.5t-9 44.5t-17 32.5t-28.5 24.5t-42 7.5q-25 0 -43 -7.5t-29 -24.5t-17.5 -32.5
t-9.5 -44t-3.5 -47t-0.5 -51.5q0 -34 0.5 -52.5t3.5 -47t9.5 -44t17.5 -32t29 -24t43 -7.5zM150 -45l878 1520h168l-879 -1520h-167z" />
    <glyph glyph-name="guilsinglleft" unicode="&#x2039;" horiz-adv-x="681" 
d="M100 551l242 420h258l-225 -420l225 -420h-258z" />
    <glyph glyph-name="guilsinglright" unicode="&#x203a;" horiz-adv-x="681" 
d="M582 551l-242 -420h-258l225 420l-225 420h258z" />
    <glyph glyph-name="fraction" unicode="&#x2044;" horiz-adv-x="342" 
d="M-340 -45l854 1520h168l-854 -1520h-168z" />
    <glyph glyph-name="Euro" unicode="&#x20ac;" 
d="M1221 1399l-54 -213q-98 49 -241 49q-152 0 -261.5 -85t-156.5 -230h600l-31 -125h-602q-9 -80 0 -160h565l-28 -125h-504q47 -143 156 -226t260 -83q141 0 243 45l13 -230q-116 -41 -295 -41q-263 0 -448.5 140.5t-241.5 394.5h-203l31 125h153q-6 80 0 160h-184l31 125
h174q58 245 244.5 389.5t439.5 144.5q191 0 340 -55z" />
    <glyph glyph-name="afii61289" unicode="&#x2113;" horiz-adv-x="1038" 
d="M899 365l102 -101q-142 -280 -417 -280q-88 0 -156.5 27t-111 75t-66.5 107.5t-31 130.5v22l-108 -84l-62 131q11 10 74 61.5t92 80.5v520q0 132 28.5 232.5t78.5 161t113.5 90.5t137.5 30q139 0 210 -100t71 -259q0 -175 -102.5 -348t-300.5 -364v-84q3 -115 55 -175.5
t133 -60.5q78 0 145 54t115 133zM451 1059v-336q249 282 249 496q0 176 -116 176q-25 0 -47.5 -16.5t-42.5 -53t-31.5 -105t-11.5 -161.5z" />
    <glyph glyph-name="trademark" unicode="&#x2122;" horiz-adv-x="2048" 
d="M952 578v852h297l203 -533l201 533h297v-852h-201v602h-4l-217 -602h-154l-217 602h-4v-602h-201zM338 578v688h-240v164h693v-164h-240v-688h-213z" />
    <glyph glyph-name="Omega" unicode="&#x2126;" horiz-adv-x="1447" 
d="M360 199v6q-108 99 -179.5 248.5t-71.5 332.5q0 182 77 332.5t220 240t323 89.5q141 0 258.5 -57.5t192 -151t115 -207.5t40.5 -233q0 -187 -74.5 -342t-183.5 -252v-6h285v-199h-531v145q110 72 183 224t73 379q0 97 -23.5 185t-67.5 157.5t-113.5 111t-155.5 41.5
q-167 0 -269 -142.5t-102 -363.5q0 -211 74 -368.5t182 -223.5v-145h-532v199h280z" />
    <glyph glyph-name="estimated" unicode="&#x212e;" horiz-adv-x="1781" 
d="M1712 694h-1331q-10 0 -10 -8v-403q0 -27 18 -45q100 -103 229 -161.5t273 -58.5q156 0 293 65t237 179h117q-111 -131 -282.5 -208t-366.5 -77q-167 0 -318.5 58.5t-261 157t-174.5 235.5t-65 287t65 287t174.5 236t261 157.5t318.5 58.5q168 0 320 -58.5t262.5 -157.5
t175.5 -236t65 -287v-21zM1409 748v403q0 28 -18 49q-100 98 -228.5 153.5t-271.5 55.5q-142 0 -271 -58t-229 -159q-20 -17 -20 -49v-395q0 -15 10 -15h1020q8 0 8 15z" />
    <glyph glyph-name="partialdiff" unicode="&#x2202;" horiz-adv-x="1163" 
d="M211 1309l-72 182q150 117 369 117q89 0 171 -31t152.5 -94.5t122.5 -154.5t81.5 -218.5t29.5 -278.5q0 -253 -66 -443t-195 -297t-306 -107q-83 0 -153 29t-118.5 77t-82.5 111t-50 130.5t-16 135.5q0 239 127 385.5t313 146.5q60 0 114 -18t91.5 -46.5t61.5 -54
t38 -49.5h2q2 16 2 70q0 136 -43 251t-124 185t-183 70q-151 0 -266 -98zM520 186h2q76 0 138 68t96.5 165t46.5 206q-21 63 -85 120.5t-153 57.5q-105 0 -175.5 -102t-70.5 -242q0 -117 55.5 -195t145.5 -78z" />
    <glyph glyph-name="uni2206" unicode="&#x2206;" horiz-adv-x="1337" 
d="M55 0v145l473 1311h291l459 -1309v-147h-1223zM305 197h713l-234 624q-15 55 -59.5 189.5t-56.5 179.5h-9q-8 -38 -50 -161t-56 -175z" />
    <glyph glyph-name="product" unicode="&#x220f;" horiz-adv-x="1464" 
d="M1411 1204h-209v-1401h-239v1401h-463v-1401h-240v1401h-211v221h1362v-221z" />
    <glyph glyph-name="summation" unicode="&#x2211;" horiz-adv-x="1136" 
d="M1096 -197h-1049v156l500 655l-481 641v170h997v-206h-670v-9l428 -557l-473 -618v-6h748v-226z" />
    <glyph glyph-name="minus" unicode="&#x2212;" horiz-adv-x="1228" 
d="M1135 412h-1041v213h1041v-213z" />
    <glyph glyph-name="uni2215" unicode="&#x2215;" horiz-adv-x="342" 
d="M-340 -45l854 1520h168l-854 -1520h-168z" />
    <glyph glyph-name="uni2219" unicode="&#x2219;" horiz-adv-x="569" 
d="M285 424q-70 0 -114 44.5t-44 113.5t44 113t114 44t113.5 -44t43.5 -113t-43.5 -113.5t-113.5 -44.5z" />
    <glyph glyph-name="radical" unicode="&#x221a;" horiz-adv-x="1202" 
d="M1217 1706l-457 -1995h-197l-305 901l-152 -59l-40 137l337 135l218 -665q8 -34 22.5 -93.5t18.5 -76.5l2 -2q4 21 14 84.5t16 97.5l353 1536h170z" />
    <glyph glyph-name="infinity" unicode="&#x221e;" horiz-adv-x="1585" 
d="M1487 590v-2q0 -156 -97.5 -252t-228.5 -96q-93 0 -180 53t-186 180q-91 -113 -177.5 -173t-199.5 -60q-131 0 -225.5 96t-94.5 242q0 153 95 249.5t241 96.5q107 0 194 -59t175 -171q84 95 121 128q116 102 250 102q135 0 224 -92.5t89 -241.5zM434 375h2
q34 0 68.5 13.5t58 28t58.5 49t49 50t51 57.5q-81 107 -118 142q-82 78 -177 78q-87 0 -137.5 -61.5t-50.5 -156.5q0 -84 55.5 -142t140.5 -58zM1159 793h-2q-36 0 -69.5 -12.5t-68 -41t-53 -46.5t-54.5 -59t-42 -48q97 -120 159 -165.5t138 -45.5q81 0 131 63.5t50 139.5
q0 96 -52 155.5t-137 59.5z" />
    <glyph glyph-name="integral" unicode="&#x222b;" horiz-adv-x="796" 
d="M752 1735l-27 -168q-32 18 -74 18q-66 0 -100 -51q-59 -75 -59 -346q0 -161 15 -481.5t15 -505.5q0 -273 -76 -408q-39 -72 -106.5 -106.5t-146.5 -34.5q-94 0 -154 33l31 172q52 -21 90 -21q57 0 90 41q57 75 57 322q0 186 -15.5 514t-15.5 497q0 177 28 283t93 174
q41 45 103.5 68.5t128.5 23.5q68 0 123 -24z" />
    <glyph glyph-name="approxequal" unicode="&#x2248;" horiz-adv-x="1126" 
d="M954 915l88 -79q-50 -96 -120 -152.5t-154 -56.5q-58 0 -105.5 18.5t-123.5 63.5q-40 24 -60.5 35.5t-54 22.5t-64.5 11q-33 0 -61 -11.5t-52.5 -35.5t-40 -44.5t-38.5 -55.5l-88 80q46 92 124 149.5t169 57.5q16 0 31 -1.5t30.5 -5t26.5 -6.5t26.5 -9.5t23 -10t23 -12
t19.5 -11t19.5 -12t17.5 -10.5q11 -6 34 -19t32.5 -18t27 -13.5t29 -12t27 -6.5t30.5 -3q56 0 97 36t87 111zM954 539l88 -80q-110 -207 -276 -207q-56 0 -103.5 18.5t-123.5 63.5q-39 24 -61 36t-54.5 22.5t-63.5 10.5q-33 0 -60.5 -11t-52.5 -36.5t-39.5 -44.5t-39.5 -57
l-88 82q45 92 124 148.5t169 56.5q24 0 47.5 -4t39.5 -8t39 -14.5t32 -15t32.5 -17.5t26.5 -15q9 -5 44 -25.5t47.5 -26.5t38.5 -14t50 -8q56 0 96 35t88 111z" />
    <glyph glyph-name="notequal" unicode="&#x2260;" horiz-adv-x="1126" 
d="M823 1042l-82 -182h285v-141h-338l-123 -281h461v-141h-516l-102 -234l-113 48l84 186h-281v141h336l121 281h-457v141h512l101 230z" />
    <glyph glyph-name="lessequal" unicode="&#x2264;" horiz-adv-x="1126" 
d="M1020 201l-911 456v154l911 455v-166l-768 -363v-4l768 -364v-168zM1028 -20h-928v145h928v-145z" />
    <glyph glyph-name="greaterequal" unicode="&#x2265;" horiz-adv-x="1126" 
d="M113 1266l911 -457v-152l-911 -456v168l768 362v6l-768 363v166zM1024 -20h-922v145h922v-145z" />
    <glyph glyph-name="lozenge" unicode="&#x25ca;" horiz-adv-x="1202" 
d="M1100 711l-408 -809h-194l-396 809l406 811h194zM883 707l-240 497q-29 76 -39 121h-6q-10 -47 -39 -121l-242 -487l244 -506q27 -79 35 -115h8q12 58 35 111z" />
    <glyph glyph-name="fi" unicode="&#xfb01;" horiz-adv-x="1366" 
d="M944 0v1055h275v-1055h-275zM944 1247v262h275v-262h-275zM242 0v854h-203v201h203v147q0 162 88.5 260.5t247.5 98.5q98 0 200 -23l-22 -227q-1 1 -8.5 5t-10 5.5t-10 5.5t-12 5.5t-12.5 4.5t-14.5 4.5t-15 3.5t-17.5 2.5t-19 0.5q-64 0 -92.5 -46t-28.5 -116v-131h240
v-201h-240v-854h-274z" />
    <glyph glyph-name="fl" unicode="&#xfb02;" horiz-adv-x="1366" 
d="M944 0v1536h275v-1536h-275zM242 0v854h-203v201h203v147q0 162 88.5 260.5t247.5 98.5q98 0 200 -23l-22 -227q-1 1 -8.5 5t-10 5.5t-10 5.5t-12 5.5t-12.5 4.5t-14.5 4.5t-15 3.5t-17.5 2.5t-19 0.5q-64 0 -92.5 -46t-28.5 -116v-131h240v-201h-240v-854h-274z" />
    <glyph glyph-name="a.superior" horiz-adv-x="739" 
d="M682 803h-172l-6 86h-4q-44 -103 -193 -103q-61 0 -115 16.5t-94.5 59.5t-40.5 105q0 49 15 87.5t44 63t62 41t77.5 24t82 10.5t82.5 3h76q0 77 -37.5 106t-112.5 29q-113 0 -215 -63v135q99 51 246 51q155 0 225 -63.5t70 -214.5q0 -234 10 -373zM233 977q0 -36 34 -52
t73 -16q74 0 116 50.5t42 125.5h-62q-28 0 -43 -0.5t-43.5 -3t-45 -9.5t-35 -18.5t-27.5 -31t-9 -45.5z" />
    <glyph glyph-name="o.superior" horiz-adv-x="813" 
d="M410 1454q151 0 255.5 -92t104.5 -240q0 -153 -103.5 -244.5t-258.5 -91.5t-260 91.5t-105 244.5q0 149 107.5 240.5t259.5 91.5zM414 1331q-88 0 -129 -58.5t-41 -150.5q0 -213 166 -213q159 0 159 213q0 55 -13.5 99.5t-50 77t-91.5 32.5z" />
    <glyph glyph-name="one.superior" horiz-adv-x="739" 
d="M25 1237l284 205h193v-864h-213v655l-158 -121z" />
    <glyph glyph-name="two.superior" horiz-adv-x="739" 
d="M680 578h-619v167q32 11 96.5 62t125.5 115q155 166 155 249q0 51 -32 79t-93 28q-117 0 -215 -70l-14 178q127 68 276 68q141 0 228.5 -64.5t87.5 -199.5q0 -114 -125 -256q-54 -60 -114.5 -107.5t-106.5 -68.5v-4h350v-176z" />
    <glyph glyph-name="three.superior" horiz-adv-x="739" 
d="M94 1237l-10 168q140 49 264 49q42 0 84.5 -6t86.5 -21.5t78 -39t55.5 -60.5t21.5 -84q0 -172 -170 -215v-4q86 -6 134 -61.5t48 -135.5q0 -56 -23 -101.5t-61 -74.5t-87.5 -49t-100.5 -28.5t-103 -8.5q-126 0 -258 35l10 170q138 -41 222 -41q64 0 114 28t50 77
q0 100 -150 100q-74 0 -115 -6v172q18 1 57 -0.5t62 -1.5q32 0 63.5 9.5t57 32.5t25.5 56q0 94 -132 94q-131 0 -223 -53z" />
    </font>
</defs>
</svg>
